↑↓Torrent.by
Поиск
Логин: Регистрация
Пароль: Восстановить пароль
Загрузка...

Рассвет (2019) WEB-DLRip от GeneralFilm | iTunes

Скачать rassvet-2019-web-dlrip-ot-generalfilm-itunes.torrent
U Магнитная ссылка Размер: 1.45 GB Раздают: 74 Качают: 23 Добавлен: 2019-06-01 16:52:12
Рассвет (2019) WEB-DLRip от GeneralFilm | iTunes

Оригинальное название: Рассвет
Год выпуска: 2019
Жанр:  Ужасы, триллер
Выпущено: Россия, «Karoprokat»
Режиссер: Павел Сидоров
В ролях: Оксана Акиньшина, Александра Дроздова, Александр Молочников, Анна Слю, Олег Васильков, Кузьма Котрелев, Анастасия Куимова, Валерий Кухарешин, Мирослав Пенцов

О фильме: У главной героини при загадочных обстоятельствах погибает брат. Девушку начинают преследовать реалистичные кошмары, и она отправляется в институт сомнологии, где ее вместе с другими пациентами погружают в совместное осознанное сновидение. Но после наступления рассвета они проснутся совсем в другой реальности, которая страшнее любого кошмара.

Качество: WEB-DLRip
Видео: XviD build 73, 720x304 (2.37:1), 23.976 fps, 1739 Kbps (0.331 bit/pixel)
Аудио: 48.0 kHz, AC3 6ch, 384 kbps
Продолжительность: 01:37:41
Перевод: Не требуется [Русский]
Cубтитры: нет

Релиз:


[+] MediaInfo
General
Complete name               : D:RazdachiRassvet.2019.WEB-DLRip.1.45Mb.GeneralFilm.avi
Format                      : AVI
Format/Info                 : Audio Video Interleave
File size                   : 1.45 GiB
Duration                    : 1 h 37 min
Overall bit rate            : 2 132 kb/s
Writing application         : VirtualDubMod 1.5.10.3 | www.virtualdub-fr.org || (build 2550/release)
Writing library             : VirtualDubMod build 2550/release

Video
ID                          : 0
Format                      : MPEG-4 Visual
Format profile              : Advanced Simple@L5
Format settings             : BVOP1 / Custom Matrix
Format settings, BVOP       : 1
Format settings, QPel       : No
Format settings, GMC        : No warppoints
Format settings, Matrix     : Custom
Codec ID                    : XVID
Codec ID/Hint               : XviD
Duration                    : 1 h 37 min
Bit rate                    : 1 739 kb/s
Width                       : 720 pixels
Height                      : 304 pixels
Display aspect ratio        : 2.35:1
Frame rate                  : 23.976 (24000/1001) FPS
Color space                 : YUV
Chroma subsampling          : 4:2:0
Bit depth                   : 8 bits
Scan type                   : Progressive
Compression mode            : Lossy
Bits/(Pixel*Frame)          : 0.331
Stream size                 : 1.19 GiB (82%)
Writing library             : XviD 73

Audio
ID                          : 1
Format                      : AC-3
Format/Info                 : Audio Coding 3
Commercial name             : Dolby Digital
Codec ID                    : 2000
Duration                    : 1 h 37 min
Bit rate mode               : Constant
Bit rate                    : 384 kb/s
Channel(s)                  : 6 channels
Channel layout              : L R C LFE Ls Rs
Sampling rate               : 48.0 kHz
Frame rate                  : 31.250 FPS (1536 SPF)
Bit depth                   : 16 bits
Compression mode            : Lossy
Stream size                 : 268 MiB (18%)
Alignment                   : Split accross interleaves
Interleave, duration        : 42  ms (1.00 video frame)
Interleave, preload duratio : 500  ms
Service kind                : Complete Main



Скриншоты:
[+] Всего файлов в раздаче - 1:
Rassvet.2019.WEB-DLRip.1.45Mb.GeneralFilm.avi1.45 GB

Показать еще раздачи по запросу рассвет:
2019-06-02 U Рассвет (2019) WEB-DLRip-AVC от ExKinoRay | iTunes 741.41 MB ↑ 42 ↓ 8
2019-05-31 U Рассвет (2019) WEB-DLRip-AVC от Files-x | iTunes 1.37 GB ↑ 94 ↓ 55
2019-05-31 U Рассвет (2019) WEB-DLRip от GeneralFilm | iTunes 745.77 MB ↑ 98 ↓ 37
2019-05-31 U Рассвет (2019) WEB-DL 1080p | iTunes 3.40 GB ↑ 400 ↓ 111
2019-04-01 U Я подарю тебе рассвет [01-04 из 04] (2018) HDTVRip 720p от ExKinoRay 6.40 GB ↑ 61 ↓ 28
2018-09-09 U Я подарю тебе рассвет [01-04 из 04] (2018) SATRip от Files-x 2.72 GB ↑ 61 ↓ 108
2017-11-04 U Рассвет надежды 2: Дочь Грома / Dawn of Hope 2: Daughter of Thunder CE (2017) PC 1К697.91 MB ↑ 103 ↓ 11

Отзывы
Зарегистрируйтесь чтобы добавить комментарий.
Обратная связь
Copyleft ©