↑↓Torrent.by
Поиск
Логин: Регистрация
Пароль: Восстановить пароль
Загрузка...

Битва за Землю / Captive State (2019) BDRemux 1080p | CВ Студия

Скачать bitva-za-zemlyu-captive-state-2019-bdremux-1080p-cv-studiya.torrent
U Магнитная ссылка Размер: 29.99 GB Раздают: 89 Качают: 114 Добавлен: 2019-06-01 16:52:18
Битва за Землю / Captive State (2019) BDRemux 1080p | CВ Студия

Название: Битва за Землю
Оригинальное название: Captive State
Год выхода: 2019
Жанр: фантастика, триллер

Режиссер: Руперт Уайатт

В ролях: Джон Гудмен, Вера Фармига, Эштон Сандерс, Джонатан Мэйджерс, Кевин Данн, Джеймс Рэнсон, Алан Рак, Мадлен Брюэр, Машин Ган Келли, Кевин Дж. О`Коннор, Бен Дэниелс, Кэйтлин Эвальд, Лоуренс Грим, Гай Ван Сверинген, Елена Флорес

О фильме: Мы всегда знали, что не одни в этом мире. Мы отправляли сигналы в надежде получить ответ. И нас услышали. За считанные часы пришельцы захватили Землю и установили свое правительство. Сотовая связь и интернет отключены, электронные библиотеки уничтожены. Большой инопланетный брат следит за каждым, его дроны-охотники днем и ночью патрулируют улицы новой Земли. Мы — последние, те, у кого нет имени, невидимые для системы. Сегодня мы вернем нашу планету

Страна: США
Продолжительность: 01:49:34
Перевод: Многоголосый закадровый | CВ Студия

Файл
Кодек: H.264
Качество: BDRemux 1080p
Видео: AVC, 1920x1080 (16:9), 23.976 fps, 35.5 Mbps
Аудио 1: AC3, 48.0 KHz, 1 ch, 192 Kbps | RUS
Аудио 2: DTS-HD MA, 48.0 KHz, 6 ch, 3452 Kbps | ENG
Субтитры: Русские, английские


[+] MI
General
Unique ID                                : 80010868127277875584673509475840124119 (0x3C31885DBC053B3C0D27D36DDA4F64D7)
Complete name                            : Captive.State.2019.BDRemux.1080p.mkv
Format                                   : Matroska
Format version                           : Version 4
File size                                : 30.0 GiB
Duration                                 : 1 h 49 min
Overall bit rate mode                    : Variable
Overall bit rate                         : 39.2 Mb/s
Encoded date                             : UTC 2019-06-01 05:51:14
Writing application                      : mkvmerge v34.0.0 ('Sight and Seen') 64-bit
Writing library                          : libebml v1.3.7 + libmatroska v1.5.0

Video
ID                                       : 1
Format                                   : AVC
Format/Info                              : Advanced Video Codec
Format profile                           : High@L4.1
Format settings                          : CABAC / 4 Ref Frames
Format settings, CABAC                   : Yes
Format settings, ReFrames                : 4 frames
Format settings, GOP                     : M=3, N=12
Codec ID                                 : V_MPEG4/ISO/AVC
Duration                                 : 1 h 49 min
Bit rate mode                            : Variable
Bit rate                                 : 35.5 Mb/s
Maximum bit rate                         : 39.6 Mb/s
Width                                    : 1 920 pixels
Height                                   : 1 080 pixels
Display aspect ratio                     : 16:9
Frame rate mode                          : Constant
Frame rate                               : 23.976 (24000/1001) FPS
Color space                              : YUV
Chroma subsampling                       : 4:2:0
Bit depth                                : 8 bits
Scan type                                : Progressive
Bits/(Pixel*Frame)                       : 0.715
Stream size                              : 27.2 GiB (91%)
Language                                 : English
Default                                  : No
Forced                                   : No

Audio #1
ID                                       : 2
Format                                   : AC-3
Format/Info                              : Audio Coding 3
Commercial name                          : Dolby Digital
Codec ID                                 : A_AC3
Duration                                 : 1 h 49 min
Bit rate mode                            : Constant
Bit rate                                 : 192 kb/s
Channel(s)                               : 2 channels
Channel layout                           : L R
Sampling rate                            : 48.0 kHz
Frame rate                               : 31.250 FPS (1536 SPF)
Bit depth                                : 16 bits
Compression mode                         : Lossy
Stream size                              : 150 MiB (0%)
Title                                    : MVO [СВ Студия]
Language                                 : Russian
Default                                  : Yes
Forced                                   : No

Audio #2
ID                                       : 3
Format                                   : DTS XLL
Format/Info                              : Digital Theater Systems
Commercial name                          : DTS-HD Master Audio
Codec ID                                 : A_DTS
Duration                                 : 1 h 49 min
Bit rate mode                            : Variable
Bit rate                                 : 3 452 kb/s
Channel(s)                               : 6 channels
Channel layout                           : C L R Ls Rs LFE
Sampling rate                            : 48.0 kHz
Frame rate                               : 93.750 FPS (512 SPF)
Bit depth                                : 24 bits
Compression mode                         : Lossless
Stream size                              : 2.64 GiB (9%)
Title                                    : [Original]
Language                                 : English
Default                                  : No
Forced                                   : No

Text #1
ID                                       : 4
Format                                   : UTF-8
Codec ID                                 : S_TEXT/UTF8
Codec ID/Info                            : UTF-8 Plain Text
Duration                                 : 1 h 44 min
Bit rate                                 : 60 b/s
Count of elements                        : 849
Stream size                              : 46.0 KiB (0%)
Title                                    : Full
Language                                 : Russian
Default                                  : No
Forced                                   : No

Text #2
ID                                       : 5
Format                                   : UTF-8
Codec ID                                 : S_TEXT/UTF8
Codec ID/Info                            : UTF-8 Plain Text
Duration                                 : 1 h 44 min
Bit rate                                 : 35 b/s
Count of elements                        : 803
Stream size                              : 27.5 KiB (0%)
Title                                    : Full
Language                                 : English
Default                                  : No
Forced                                   : No

Text #3
ID                                       : 6
Format                                   : UTF-8
Codec ID                                 : S_TEXT/UTF8
Codec ID/Info                            : UTF-8 Plain Text
Duration                                 : 1 h 45 min
Bit rate                                 : 46 b/s
Count of elements                        : 1123
Stream size                              : 35.6 KiB (0%)
Title                                    : SDH
Language                                 : English
Default                                  : No
Forced                                   : No

Menu
00:00:00.000                             : en:Chapter 01
00:06:25.385                             : en:Chapter 02
00:12:34.671                             : en:Chapter 03
00:18:46.000                             : en:Chapter 04
00:24:21.377                             : en:Chapter 05
00:26:55.113                             : en:Chapter 06
00:32:44.504                             : en:Chapter 07
00:38:27.597                             : en:Chapter 08
00:43:36.948                             : en:Chapter 09
00:47:17.626                             : en:Chapter 10
00:52:14.465                             : en:Chapter 11
01:00:01.598                             : en:Chapter 12
01:06:42.373                             : en:Chapter 13
01:11:29.577                             : en:Chapter 14
01:15:18.222                             : en:Chapter 15
01:19:40.859                             : en:Chapter 16
01:23:32.049                             : en:Chapter 17
01:31:46.543                             : en:Chapter 18
01:38:12.011                             : en:Chapter 19
01:45:00.711                             : en:Chapter 20



Скриншоты:
[+] Всего файлов в раздаче - 1:
Captive.State.2019.BDRemux.1080p.mkv29.99 GB

Показать еще раздачи по запросу битва:
2019-06-07 U Битва за Землю / Captive State (2019) BDRip | HDRezka Studio 2.17 GB ↑ 69 ↓ 46
2019-06-03 U Битва за Землю / Captive State (2019) HDRip от Portablius | CВ Студия 746.90 MB ↑ 73 ↓ 28
2019-06-02 U Битва за Землю / Captive State (2019) BDRip 720p от ExKinoRay | CВ Студия 3.98 GB ↑ 85 ↓ 107
2019-06-02 U Битва за Землю / Captive State (2019) HDRip-AVC | CВ Студия 744.59 MB ↑ 104 ↓ 24
2019-06-01 U Битва за Землю / Captive State (2019) BDRip от MegaPeer | CВ Студия 1.46 GB ↑ 282 ↓ 181
2019-06-01 U Битва за Землю / Captive State (2019) BDRip-AVC от OlLanDGroup | CВ Студия 1.86 GB ↑ 132 ↓ 162
2019-06-01 U Битва за Землю / Captive State (2019) BDRip 1080р | CВ Студия 14.50 GB ↑ 204 ↓ 346

Отзывы
Зарегистрируйтесь чтобы добавить комментарий.
Обратная связь
Copyleft ©