↑↓Torrent.by
Поиск
Логин: Регистрация
Пароль: Восстановить пароль
Загрузка...

Капитан Марвел / Captain Marvel (2019) BDRemux 1080p от селезень | iTunes

Скачать kapitan-marvel-captain-2019-bdremux-1080p-ot-selezen-itunes.torrent
U Магнитная ссылка Размер: 31.80 GB Раздают: 94 Качают: 79 Добавлен: 2019-06-02 07:32:06
Капитан Марвел / Captain Marvel (2019) BDRemux 1080p от селезень | iTunes

Название: Капитан Марвел
Оригинальное название: Captain Marvel
Год выхода: 2019
Жанр: Фантастика, боевик, приключения
Режиссер: Анна Боден, Райан Флек
В ролях: Бри Ларсон, Сэмюэл Л. Джексон, Бен Мендельсон, Джуд Лоу, Аннетт Бенинг, Лашана Линч, Кларк Грегг, Рюн Темт, Джемма Чан, Альхенис Перес Сото, Джимон Хонсу, Ли Пейс, Чуку Моду, Мэттью Мехер, Акира Акбар, Марк Догерти, Стивен А. Чанг

О фильме: После столкновения с враждующими инопланетными расами пилот военно-воздушных сил Кэрол Дэнверс обретает суперсилу и становится неуязвимой. Героине предстоит совладать со своими новыми способностями, чтобы противостоять могущественному врагу.

Страна: США
Студия: Walt Disney Pictures, Marvel Studios
Продолжительность: 02:03:42
Перевод: Дублированный | iTunes

Качество: BDRemux 1080p
Видео: MPEG-4 AVC, 1920x1080, 31.6 Mbit/s, 23.976 fps
Звук:
Аудио #01: 48 kHz, AC3, 5.1, 384 Kbps | iTunes | RUS |
Аудио #02: 48 kHz, DTS-HD MA, 7.1, 4777 Kbps | Оригинал |  ENG |
Субтитры: Русские (Forced, full, SDH), английские

Релиз:


[+] MI
General
Unique ID                   : 178520666031710811285700584174744874939 (0x864DD4634D8D07759C223CB91421AFBB)
Complete name               : D:Video111Captain.Marvel.2019.BDREMUX.1080p.seleZen.mkv
Format                      : Matroska
Format version              : Version 4
File size                   : 31.8 GiB
Duration                    : 2 h 3 min
Overall bit rate mode       : Variable
Overall bit rate            : 36.8 Mb/s
Movie name                  : Captain Marvel 2019 from селезень
Encoded date                : UTC 2019-06-01 16:20:49
Writing application         : mkvmerge v33.1.0 ('Primrose') 64-bit
Writing library             : libebml v1.3.7 + libmatroska v1.5.0

Video
ID                          : 1
Format                      : AVC
Format/Info                 : Advanced Video Codec
Format profile              : High@L4.1
Format settings             : CABAC / 4 Ref Frames
Format settings, CABAC      : Yes
Format settings, Reference  : 4 frames
Codec ID                    : V_MPEG4/ISO/AVC
Duration                    : 2 h 3 min
Bit rate mode               : Variable
Bit rate                    : 31.6 Mb/s
Maximum bit rate            : 34.0 Mb/s
Width                       : 1 920 pixels
Height                      : 1 080 pixels
Display aspect ratio        : 16:9
Frame rate mode             : Constant
Frame rate                  : 23.976 (24000/1001) FPS
Color space                 : YUV
Chroma subsampling          : 4:2:0
Bit depth                   : 8 bits
Scan type                   : Progressive
Bits/(Pixel*Frame)          : 0.636
Stream size                 : 27.3 GiB (86%)
Language                    : English
Default                     : Yes
Forced                      : No

Audio #1
ID                          : 2
Format                      : AC-3
Format/Info                 : Audio Coding 3
Commercial name             : Dolby Digital
Codec ID                    : A_AC3
Duration                    : 2 h 3 min
Bit rate mode               : Constant
Bit rate                    : 384 kb/s
Channel(s)                  : 6 channels
Channel layout              : L R C LFE Ls Rs
Sampling rate               : 48.0 kHz
Frame rate                  : 31.250 FPS (1536 SPF)
Bit depth                   : 16 bits
Compression mode            : Lossy
Stream size                 : 340 MiB (1%)
Title                       : iTunes
Language                    : Russian
Service kind                : Complete Main
Default                     : Yes
Forced                      : Yes

Audio #2
ID                          : 3
Format                      : DTS XLL
Format/Info                 : Digital Theater Systems
Commercial name             : DTS-HD Master Audio
Codec ID                    : A_DTS
Duration                    : 2 h 3 min
Bit rate mode               : Variable
Bit rate                    : 4 777 kb/s
Channel(s)                  : 8 channels
Channel layout              : C L R LFE Lb Rb Lss Rss
Sampling rate               : 48.0 kHz
Frame rate                  : 93.750 FPS (512 SPF)
Bit depth                   : 24 bits
Compression mode            : Lossless
Stream size                 : 4.13 GiB (13%)
Title                       : Original
Language                    : English
Default                     : No
Forced                      : No

Text #1
ID                          : 4
Format                      : UTF-8
Codec ID                    : S_TEXT/UTF8
Codec ID/Info               : UTF-8 Plain Text
Duration                    : 1 h 55 min
Bit rate                    : 1 b/s
Count of elements           : 17
Stream size                 : 937 Bytes (0%)
Title                       : Forced
Language                    : Russian
Default                     : Yes
Forced                      : Yes

Text #2
ID                          : 5
Format                      : UTF-8
Codec ID                    : S_TEXT/UTF8
Codec ID/Info               : UTF-8 Plain Text
Duration                    : 2 h 2 min
Bit rate                    : 65 b/s
Count of elements           : 1314
Stream size                 : 58.8 KiB (0%)
Title                       : Full
Language                    : Russian
Default                     : No
Forced                      : No

Text #3
ID                          : 6
Format                      : UTF-8
Codec ID                    : S_TEXT/UTF8
Codec ID/Info               : UTF-8 Plain Text
Duration                    : 2 h 2 min
Bit rate                    : 77 b/s
Count of elements           : 1637
Stream size                 : 69.2 KiB (0%)
Title                       : SDH
Language                    : Russian
Default                     : No
Forced                      : No

Text #4
ID                          : 7
Format                      : UTF-8
Codec ID                    : S_TEXT/UTF8
Codec ID/Info               : UTF-8 Plain Text
Duration                    : 1 h 53 min
Bit rate                    : 47 b/s
Count of elements           : 1422
Stream size                 : 39.6 KiB (0%)
Title                       : Full
Language                    : English
Default                     : No
Forced                      : No

Text #5
ID                          : 8
Format                      : UTF-8
Codec ID                    : S_TEXT/UTF8
Codec ID/Info               : UTF-8 Plain Text
Duration                    : 2 h 2 min
Bit rate                    : 50 b/s
Count of elements           : 1668
Stream size                 : 45.1 KiB (0%)
Title                       : SDH
Language                    : English
Default                     : No
Forced                      : No

Text #6
ID                          : 9
Format                      : UTF-8
Codec ID                    : S_TEXT/UTF8
Codec ID/Info               : UTF-8 Plain Text
Duration                    : 2 h 2 min
Bit rate                    : 67 b/s
Count of elements           : 1665
Stream size                 : 60.9 KiB (0%)
Title                       : SDH Colored
Language                    : English
Default                     : No
Forced                      : No

Menu
00:00:00.000                : en:Глава 01
00:06:52.120                : en:Глава 02
00:14:07.889                : en:Глава 03
00:23:18.272                : en:Глава 04
00:29:38.026                : en:Глава 05
00:35:07.772                : en:Глава 06
00:44:08.437                : en:Глава 07
00:50:43.499                : en:Глава 08
00:56:18.625                : en:Глава 09
01:03:02.821                : en:Глава 10
01:11:17.398                : en:Глава 11
01:17:49.164                : en:Глава 12
01:27:03.051                : en:Глава 13
01:33:22.430                : en:Глава 14
01:40:51.796                : en:Глава 15
01:46:25.087                : en:Глава 16
01:52:49.888                : en:Глава 17



[+] eac3to Log
eac3to v3.34
command line: eac3to  "D:DownloadCaptain.Marvel.2019.Blu-Ray" 1) -demux -keepdialnorm
------------------------------------------------------------------------------
M2TS, 1 video track, 6 audio tracks, 11 subtitle tracks, 2:03:42, 24p /1.001
1: Chapters, 17 chapters
2: h264/AVC, 1080p24 /1.001 (16:9)
3: DTS Master Audio, English, 7.1 channels, 24 bits, 48kHz, dialnorm: -4dB
  (core: DTS, 5.1 channels, 1509kbps, 48kHz, dialnorm: -4dB)
4: AC3, English, 2.0 channels, 320kbps, 48kHz, dialnorm: -27dB
5: AC3, French, 5.1 channels, 640kbps, 48kHz, dialnorm: -27dB
6: AC3, Spanish, 5.1 channels, 640kbps, 48kHz, dialnorm: -27dB
7: AC3, Portuguese, 5.1 channels, 640kbps, 48kHz, dialnorm: -27dB
8: AC3, English, 2.0 channels, 192kbps, 48kHz, dialnorm: -27dB
9: Subtitle (PGS), English
10: Subtitle (PGS), French
11: Subtitle (PGS), Spanish
12: Subtitle (PGS), Portuguese
13: Subtitle (PGS), English
14: Subtitle (PGS), French
15: Subtitle (PGS), Spanish
16: Subtitle (PGS), Portuguese
17: Subtitle (PGS), French
18: Subtitle (PGS), Spanish
19: Subtitle (PGS), Portuguese
Creating file "00801 - Chapters.txt"...
[s09] Extracting subtitle track number 9...
[a08] Extracting audio track number 8...
[a04] Extracting audio track number 4...
[v02] Extracting video track number 2...
[a03] Extracting audio track number 3...
[s16] Extracting subtitle track number 16...
[s10] Extracting subtitle track number 10...
[s14] Extracting subtitle track number 14...
[s19] Extracting subtitle track number 19...
[s12] Extracting subtitle track number 12...
[a06] Extracting audio track number 6...
[s11] Extracting subtitle track number 11...
[s18] Extracting subtitle track number 18...
[s17] Extracting subtitle track number 17...
[a05] Extracting audio track number 5...
[s15] Extracting subtitle track number 15...
[s13] Extracting subtitle track number 13...
[a07] Extracting audio track number 7...
[v02] Creating file "00801 - 2 - h264, 1080p24.h264"...
[a03] Creating file "00801 - 3 - DTS Master Audio, English, 7.1 channels, 24 bits, 48kHz.dtsma"...
[a07] Creating file "00801 - 7 - AC3, Portuguese, 5.1 channels, 640kbps, 48kHz.ac3"...
[a05] Creating file "00801 - 5 - AC3, French, 5.1 channels, 640kbps, 48kHz.ac3"...
[a06] Creating file "00801 - 6 - AC3, Spanish, 5.1 channels, 640kbps, 48kHz.ac3"...
[a04] Creating file "00801 - 4 - AC3, English, 2.0 channels, 320kbps, 48kHz.ac3"...
[a08] Creating file "00801 - 8 - AC3, English, 2.0 channels, 192kbps, 48kHz.ac3"...
[s13] Creating file "00801 - 13 - Subtitle (PGS), English.sup"...
[s14] Creating file "00801 - 14 - Subtitle (PGS), French.sup"...
[s16] Creating file "00801 - 16 - Subtitle (PGS), Portuguese.sup"...
[s15] Creating file "00801 - 15 - Subtitle (PGS), Spanish.sup"...
[s09] Creating file "00801 - 9 - Subtitle (PGS), English.sup"...
[s10] Creating file "00801 - 10 - Subtitle (PGS), French.sup"...
[s12] Creating file "00801 - 12 - Subtitle (PGS), Portuguese.sup"...
[s11] Creating file "00801 - 11 - Subtitle (PGS), Spanish.sup"...
[s17] Creating file "00801 - 17 - Subtitle (PGS), French.sup"...
[s18] Creating file "00801 - 18 - Subtitle (PGS), Spanish.sup"...
[s19] Creating file "00801 - 19 - Subtitle (PGS), Portuguese.sup"...
Video track 2 contains 177957 frames.
Subtitle track 9 contains 1665 captions.
Subtitle track 10 contains 1328 captions.
Subtitle track 11 contains 1307 captions.
Subtitle track 12 contains 1301 captions.
Subtitle track 13 contains 1977 captions.
Subtitle track 14 contains 1848 captions.
Subtitle track 15 contains 1850 captions.
Subtitle track 16 contains 1848 captions.
Subtitle track 17 contains 37 captions.
Subtitle track 18 contains 16 captions.
Subtitle track 19 contains 19 captions.
eac3to processing took 3 minutes, 47 seconds.
Done.



Скриншоты:
[+] Всего файлов в раздаче - 1:
Captain.Marvel.2019.BDREMUX.1080p.seleZen.mkv31.80 GB

Показать еще раздачи по запросу капитан:
2019-06-11 U Капитан Марвел / Captain Marvel (2019) BDRip-AVC от HELLYWOOD | iTunes 2.85 GB ↑ 70 ↓ 41
2019-06-07 U Капитан Марвел / Captain Marvel (2019) BDRip от Twister & ExKinoRay | iTunes 1.46 GB ↑ 77 ↓ 29
2019-06-07 U Капитан Марвел / Captain Marvel (2019) BDRip от Twister & ExKinoRay | iTunes 2.13 GB ↑ 116 ↓ 21
2019-06-06 U Капитан Марвел / Капітан Марвел / Captain Marvel (2019) BDRip 1080p | Line | UKR 8.91 GB ↑ 28 ↓ 7
2019-06-06 U Капитан Марвел / Captain Marvel (2019) BDRip 1080p от qqss44 & MegaPeer | iTunes 7.53 GB ↑ 85 ↓ 43
2019-06-05 U Капитан Марвел / Captain Marvel (2019) BDRip-HEVC 1080p от HANNIBAL | iTunes 6.30 GB ↑ 103 ↓ 28
2019-06-03 U Капитан Марвел / Captain Marvel (2019) UHD BDRip 2160p от селезень | 4K | HDR | iTunes 20.76 GB ↑ 41 ↓ 77

Отзывы
францисканец
Слабоватый фильм .

Зарегистрируйтесь чтобы добавить комментарий.
Обратная связь
Copyleft ©