↑↓Torrent.by
Поиск
Логин: Регистрация
Пароль: Восстановить пароль
Загрузка...

Рассвет (2019) WEB-DLRip-AVC от ExKinoRay | iTunes

Скачать rassvet-2019-web-dlrip-avc-ot-exkinoray-itunes.torrent
U Магнитная ссылка Размер: 741.41 MB Раздают: 42 Качают: 8 Добавлен: 2019-06-02 07:32:55
Рассвет (2019) WEB-DLRip-AVC от ExKinoRay | iTunes

Название: Рассвет
Год выхода: 2019
Жанр:  Ужасы, триллер
Режиссер: Павел Сидоров
В ролях: Оксана Акиньшина, Александра Дроздова, Александр Молочников, Анна Слю, Олег Васильков, Кузьма Котрелев, Анастасия Куимова, Валерий Кухарешин, Мирослав Пенцов

О фильме:
Фильм рассказывает о девушке, у которой при весьма загадочных обстоятельствах погибает брат. После случившегося героиню начинают одолевать очень реалистичные кошмары. Чтобы во всем разобраться, она отправляется в центр сомнологии и экспериментальной психиатрии. Там ее вместе с другими пациентами погружают в осознанное сновидение. Но никто и не подозревал, что с рассветом они очнутся в иной реальности, которая будет ужаснее любых кошмаров.

Страна: Россия
Студия: Karoprokat
Продолжительность: 01:37:41
Язык: Русский | iTunes

Файл
Формат: MKV
Качество: WEB-DLRip-AVC
Видео: MPEG-4 AVC, 800x332, - 991 Кбит/с
Аудио:  AAC-HE, 2 ch, - 76 Кбит/с
Субтитры: Нет


[+] MI
Общее
Уникальный идентификатор : 99805326008693818648693765287930528986 (0x4B15CE7D2335FA44D559FBF72DF884DA)
Полное имя : D:MOVIESRassvet.2019.ExKinoRay .mkv
Формат : Matroska
Версия формата : Version 4 / Version 2
Размер файла : 741 Мбайт
Продолжительность : 1 ч. 37 м.
Общий поток : 1061 Кбит/сек
Дата кодирования : UTC 2019-05-31 03:38:15
Программа кодирования : mkvmerge v32.0.0 ('Astral Progressions') 64-bit
Библиотека кодирования : libebml v1.3.7 + libmatroska v1.5.0

Видео
Идентификатор : 1
Формат : AVC
Формат/Информация : Advanced Video Codec
Профиль формата : High@L4.1
Параметр CABAC формата : Да
Параметр RefFrames формата : 12 кадров
Идентификатор кодека : V_MPEG4/ISO/AVC
Продолжительность : 1 ч. 37 м.
Битрейт : 991 Кбит/сек
Ширина : 800 пикселей
Высота : 332 пикселя
Соотношение сторон : 2,40:1
Режим частоты кадров : Постоянный
Частота кадров : 23,976 (24000/1001) кадра/сек
Цветовое пространство : YUV
Субдискретизация насыщенности : 4:2:0
Битовая глубина : 8 бит
Тип развёртки : Прогрессивная
Бит/(Пиксели*Кадры) : 0.156
Размер потока : 687 Мбайт (93%)
Библиотека кодирования : x264 core 152 r2851kMod ba24899
Настройки программы : cabac=1 / ref=12 / deblock=1:-3:-3 / analyse=0x3:0x133 / me=umh / subme=10 / psy=1 / fade_compensate=0.00 / psy_rd=1.00:0.14 / mixed_ref=1 / me_range=32 / chroma_me=1 / trellis=2 / 8x8dct=1 / cqm=0 / deadzone=21,11 / fast_pskip=0 / chroma_qp_offset=-3 / threads=6 / lookahead_threads=1 / sliced_threads=0 / nr=0 / decimate=0 / interlaced=0 / bluray_compat=0 / constrained_intra=0 / bframes=12 / b_pyramid=2 / b_adapt=2 / b_bias=0 / direct=3 / weightb=1 / open_gop=0 / weightp=2 / keyint=240 / keyint_min=24 / scenecut=40 / intra_refresh=0 / rc_lookahead=40 / rc=2pass / mbtree=1 / bitrate=991 / ratetol=1.0 / qcomp=0.60 / qpmin=0 / qpmax=69 / qpstep=4 / cplxblur=20.0 / qblur=0.5 / ip_ratio=1.40 / aq=3:1.00
Default : Да
Forced : Нет

Аудио
Идентификатор : 2
Формат : AAC
Формат/Информация : Advanced Audio Codec
Профиль формата : HE-AAC / LC
Идентификатор кодека : A_AAC
Продолжительность : 1 ч. 37 м.
Битрейт : 76,0 Кбит/сек
Каналы : 2 канала
Расположение каналов : Front: L R
Частота : 48,0 КГц / 24,0 КГц
Частота кадров : 23,438 кадра/сек (1024 SPF)
Метод сжатия : С потерями
Задержка видео : 31 мс.
Размер потока : 53,1 Мбайт (7%)
Default : Да
Forced : Нет

Меню
00:00:00.000 : en:1
00:03:53.000 : en:2
00:13:33.000 : en:3
00:23:19.000 : en:4
00:32:03.000 : en:5
00:42:42.000 : en:6
00:52:23.000 : en:7
01:02:26.000 : en:8
01:12:23.000 : en:9
01:22:04.000 : en:10
01:33:36.000 : en:11



Скриншоты:
[+] Всего файлов в раздаче - 1:
Rassvet.2019.ExKinoRay .mkv741.41 MB

Показать еще раздачи по запросу рассвет:
2019-06-01 U Рассвет (2019) WEB-DLRip от GeneralFilm | iTunes 1.45 GB ↑ 74 ↓ 23
2019-05-31 U Рассвет (2019) WEB-DLRip-AVC от Files-x | iTunes 1.37 GB ↑ 94 ↓ 55
2019-05-31 U Рассвет (2019) WEB-DLRip от GeneralFilm | iTunes 745.77 MB ↑ 98 ↓ 37
2019-05-31 U Рассвет (2019) WEB-DL 1080p | iTunes 3.40 GB ↑ 400 ↓ 111
2019-04-01 U Я подарю тебе рассвет [01-04 из 04] (2018) HDTVRip 720p от ExKinoRay 6.40 GB ↑ 61 ↓ 28
2018-09-09 U Я подарю тебе рассвет [01-04 из 04] (2018) SATRip от Files-x 2.72 GB ↑ 61 ↓ 108
2017-11-04 U Рассвет надежды 2: Дочь Грома / Dawn of Hope 2: Daughter of Thunder CE (2017) PC 1К697.91 MB ↑ 103 ↓ 11

Отзывы
Зарегистрируйтесь чтобы добавить комментарий.
Обратная связь
Copyleft ©