↑↓Torrent.by
Поиск
Логин: Регистрация
Пароль: Восстановить пароль
Загрузка...

David Knopfler - Heartlands (2019) FLAC

Скачать david-knopfler-heartlands-2019-flac.torrent
U Магнитная ссылка Размер: 289.03 MB Раздают: 34 Качают: 5 Добавлен: 2019-06-03 08:54:28
David Knopfler - Heartlands (2019) FLAC



Исполнитель: David Knopfler
Название: Heartlands
Страна: UK
Жанр: Rock
Год: 2019
Продолжительность: 00:48:08
Битрейт аудио: Lossless
Формат/Кодек: FLAC
Тип рипа: tracks

01. The Midnight Shaker (5:34)
02. Easter Rising (3:26)
03. Heartlands (3:38)
04. Washington Decides (4:37)
05. I've Got My Eye on You (4:34)
06. Siren Sunsets (3:43)
07. Walk by the River (2:36)
08. Working Lives (3:38)
09. Waiting for the Call (3:26)
10. This House (3:50)
11. Cats in the Rigging (3:31)
12. This Is the Place (5:34)

[+] Лог проверки качества
AUDIOCHECKER v2.0 beta (build 457) - by Dester - opdester@freemail.hu
~~~~~~~~~~~~~~~~~~~~~~~~~~~~~~~~~~

Started at: воскресенье, 02. 06. 2019. - 21:59.21
12 files found

01 -===- C:UsersUserDownloadsDavid Knopfler - Heartlands (2019) FLAC1 The Midnight Shaker.flac
 Extracted successfully
 Conclusion: this track is CDDA with probability 100%
 Tempfile successfully deleted.

02 -===- C:UsersUserDownloadsDavid Knopfler - Heartlands (2019) FLAC2 Easter Rising.flac
 Extracted successfully
 Conclusion: this track is CDDA with probability 100%
 Tempfile successfully deleted.

03 -===- C:UsersUserDownloadsDavid Knopfler - Heartlands (2019) FLAC3 Heartlands.flac
 Extracted successfully
 Conclusion: this track is CDDA with probability 100%
 Tempfile successfully deleted.

04 -===- C:UsersUserDownloadsDavid Knopfler - Heartlands (2019) FLAC4 Washington Decides.flac
 Extracted successfully
 Conclusion: this track is CDDA with probability 100%
 Tempfile successfully deleted.

05 -===- C:UsersUserDownloadsDavid Knopfler - Heartlands (2019) FLAC5 I've Got My Eye on You.flac
 Extracted successfully
 Conclusion: this track is CDDA with probability 100%
 Tempfile successfully deleted.

06 -===- C:UsersUserDownloadsDavid Knopfler - Heartlands (2019) FLAC6 Siren Sunsets.flac
 Extracted successfully
 Conclusion: this track is CDDA with probability 100%
 Tempfile successfully deleted.

07 -===- C:UsersUserDownloadsDavid Knopfler - Heartlands (2019) FLAC7 Walk by the River.flac
 Extracted successfully
 Conclusion: this track is CDDA with probability 100%
 Tempfile successfully deleted.

08 -===- C:UsersUserDownloadsDavid Knopfler - Heartlands (2019) FLAC8 Working Lives.flac
 Extracted successfully
 Conclusion: this track is CDDA with probability 100%
 Tempfile successfully deleted.

09 -===- C:UsersUserDownloadsDavid Knopfler - Heartlands (2019) FLAC9 Waiting for the Call.flac
 Extracted successfully
 Conclusion: this track is CDDA with probability 100%
 Tempfile successfully deleted.

10 -===- C:UsersUserDownloadsDavid Knopfler - Heartlands (2019) FLAC10 This House.flac
 Extracted successfully
 Conclusion: this track is CDDA with probability 100%
 Tempfile successfully deleted.

11 -===- C:UsersUserDownloadsDavid Knopfler - Heartlands (2019) FLAC11 Cats in the Rigging.flac
 Extracted successfully
 Conclusion: this track is CDDA with probability 100%
 Tempfile successfully deleted.

12 -===- C:UsersUserDownloadsDavid Knopfler - Heartlands (2019) FLAC12 This Is the Place.flac
 Extracted successfully
 Conclusion: this track is CDDA with probability 100%
 Tempfile successfully deleted.

Finished at: воскресенье, 02. 06. 2019. - 22:01.35 (operation time: 0:02.14)



[+] DR
foobar2000 1.4.4 / Замер динамического диапазона (DR) 1.1.1
Дата отчёта: 2019-06-02 21:57:27

--------------------------------------------------------------------------------
Анализ:   David Knopfler / Heartlands
--------------------------------------------------------------------------------

DR         Пики         RMS           Продолжительность трека
--------------------------------------------------------------------------------
DR8       -0.10 дБ    -9.99 дБ      5:34 01-The Midnight Shaker
DR8       -0.10 дБ    -9.48 дБ      3:26 02-Easter Rising
DR10      -1.12 дБ   -12.88 дБ      3:38 03-Heartlands
DR8       -0.10 дБ   -10.50 дБ      4:37 04-Washington Decides
DR8       -0.10 дБ    -9.57 дБ      4:34 05-I've Got My Eye on You
DR8       -0.10 дБ   -12.24 дБ      3:43 06-Siren Sunsets
DR9       -0.10 дБ   -12.14 дБ      2:36 07-Walk by the River
DR6       -0.10 дБ    -7.93 дБ      3:38 08-Working Lives
DR9       -0.10 дБ   -12.21 дБ      3:26 09-Waiting for the Call
DR10      -0.10 дБ   -12.25 дБ      3:50 10-This House
DR7       -0.10 дБ    -8.88 дБ      3:31 11-Cats in the Rigging
DR8       -0.10 дБ    -9.99 дБ      5:34 12-This Is the Place
--------------------------------------------------------------------------------

Количество треков: 12
Реальные значения DR: DR8

Частота: 44100 Гц
Каналов: 2
Разрядность: 16
Битрейт: 796 кбит/с
Кодек: FLAC
================================================================================



Скриншоты:
[+] Всего файлов в раздаче - 14:
01 The Midnight Shaker.flac32.27 MB
02 Easter Rising.flac21.55 MB
03 Heartlands.flac20.78 MB
04 Washington Decides.flac27.83 MB
06 Siren Sunsets.flac20.84 MB
07 Walk by the River.flac14.42 MB
08 Working Lives.flac23.58 MB
09 Waiting for the Call.flac16.19 MB
10 This House.flac22.63 MB
11 Cats in the Rigging.flac24.43 MB
12 This Is the Place.flac32.27 MB
foo_dr.txt1.66 kB
results.log2.79 kB

Показать еще раздачи по запросу david:
2019-06-03 U David Knopfler - Heartlands (2019) MP3 112.43 MB ↑ 56 ↓ 16
2019-05-05 U David Guetta - One More Love (2019) MP3 141.10 MB ↑ 151 ↓ 21
2018-09-14 U David Guetta - 7 [2CD] (2018) MP3 213.76 MB ↑ 218 ↓ 57
2018-04-11 U Robert Plant and The Senational Space Shifters - Live at David Lynch's Festival of Disruption (2018) BDRip 1080p 8.16 GB ↑ 41 ↓ 27
2018-02-09 U David Duchovny - Every Third Thought (2018) MP3 117.66 MB ↑ 241 ↓ 5
2018-01-08 U David Coverdale & Whitesnake - Best Ballads (2018) FLAC 461.50 MB ↑ 176 ↓ 23
2017-11-15 U F. R. David - The Video Hits Collection (2017) WEBRip от Лумина 693.06 MB ↑ 54 ↓ 19

Отзывы
Зарегистрируйтесь чтобы добавить комментарий.
Обратная связь
Copyleft ©