↑↓Torrent.by
Поиск
Логин: Регистрация
Пароль: Восстановить пароль
Загрузка...

Блуждающая Земля / Liu lang di qiu / The Wandering Earth (2019) WEBRip 1080p | HDRezka Studio

Скачать bluzhdayuschaya-zemlya-liu-lang-di-qiu-the-wandering-earth-2019-webrip-1080p-hdrezka-studio.torrent
U Магнитная ссылка Размер: 7.18 GB Раздают: 165 Качают: 84 Добавлен: 2019-06-04 06:44:54
Блуждающая Земля / Liu lang di qiu / The Wandering Earth (2019) WEBRip 1080p | HDRezka Studio

Название: Блуждающая Земля
Оригинальное название: Liu lang di qiu / The Wandering Earth
Год выхода: 2019
Жанр: Фантастика, боевик
Режиссер: Франт Гво
В ролях: Джеки Ву, Цюй Чусяо, Ли Гуанцзе, Нг Ман-Тат, Чжао Цзиньмай, Цюй Цзинцзин, Чжан Ичи, Ян Хаоюй, Аркадий Шароградский, Ли Хунчэнь, Цзян Чжиган, Чжан Хуань, Лэй Цзяинь, Нин Хао, Ван Чжи

О фильме:
В ближайшем будущем становится известно, что Солнце скоро погаснет, и Солнечная система будет разрушена. Тогда человечество запускает масштабный проект под названием «Блуждающая Земля», цель которого — с помощью огромных двигателей по всему миру сдвинуть Землю и полететь искать новое пристанище. Через 17 лет путешествия земляне приближаются к Юпитеру. Гравитация гигантской планеты меняет траекторию Земли, вызывает глобальные землетрясения и ставит под угрозу весь проект по выживанию человечества.

Страна: Китай
Студия: Beijing Culture, China Film Company Limited., United Entertainment Partners
Продолжительность: 02:05:30
Перевод: Профессиональный (многоголосый, закадровый) | HDrezka Studio

Файл
Качество: WEB-Rip 1080p | HDRezka Studio
Видео: AVC/H.264, 1920x1080, ~7500 Кbps, 24 fps
Звук:
Аудио 1: AC3, 2 ch, 192 Kbps - Русский
Аудио 2: E-AC3+Atmos, 6ch, 768 Kbps - Китайский
Субтитры: Русские (форс, полные), английские (полные, SDH)


[+] Mediainfo
Общее
Уникальный идентификатор                 : 232170155890896732719124272619194738380 (0xAEAA5875765BE2D68CED41106DC4E6CC)
Полное имя                               : The Wandering Earth.2019.WEB-Rip.1080p.mkv
Формат                                   : Matroska
Версия формата                           : Version 4
Размер файла                             : 7,18 Гбайт
Продолжительность                        : 2 ч. 5 м.
Режим общего битрейта                    : Переменный
Общий поток                              : 8189 Кбит/сек
Название фильма                          : The Wandering Earth.2019.WEB-Rip.1080p
Дата кодирования                         : UTC 2019-06-03 17:18:38
Программа кодирования                    : mkvmerge v23.0.0 ('The Bride Said No') 64-bit
Библиотека кодирования                   : libebml v1.3.6 + libmatroska v1.4.9

Видео
Идентификатор                            : 1
Формат                                   : AVC
Формат/Информация                        : Advanced Video Codec
Профиль формата                          : Main@L4
Настройки формата                        : CABAC / 3 Ref Frames
Параметр CABAC формата                   : Да
Параметр RefFrames формата               : 3 кадра
Идентификатор кодека                     : V_MPEG4/ISO/AVC
Продолжительность                        : 2 ч. 5 м.
Вид битрейта                             : Переменный
Битрейт                                  : 7500 Кбит/сек
Максимальный битрейт                     : 11,2 Мбит/сек
Ширина                                   : 1920 пикселей
Высота                                   : 1080 пикселей
Соотношение сторон                       : 16:9
Режим частоты кадров                     : Постоянный
Частота кадров                           : 24,000 кадра/сек
Цветовое пространство                    : YUV
Субдискретизация насыщенности            : 4:2:0
Битовая глубина                          : 8 бит
Тип развёртки                            : Прогрессивная
Бит/(Пиксели*Кадры)                      : 0.151
Размер потока                            : 6,33 Гбайт (88%)
Библиотека кодирования                   : x264 core 148 r2715 7e75228
Настройки программы                      : cabac=1 / ref=3 / deblock=1:0:0 / analyse=0x1:0x111 / me=umh / subme=10 / psy=1 / psy_rd=1.00:0.00 / mixed_ref=1 / me_range=24 / chroma_me=1 / trellis=2 / 8x8dct=0 / cqm=0 / deadzone=21,11 / fast_pskip=1 / chroma_qp_offset=-2 / threads=8 / lookahead_threads=1 / sliced_threads=0 / nr=0 / decimate=1 / interlaced=0 / bluray_compat=0 / stitchable=1 / constrained_intra=0 / bframes=2 / b_pyramid=0 / b_adapt=2 / b_bias=0 / direct=3 / weightb=1 / open_gop=0 / weightp=2 / keyint=48 / keyint_min=25 / scenecut=0 / intra_refresh=0 / rc_lookahead=48 / rc=2pass / mbtree=1 / bitrate=7500 / ratetol=1.0 / qcomp=0.50 / qpmin=6 / qpmax=51 / qpstep=4 / cplxblur=20.0 / qblur=0.5 / vbv_maxrate=11250 / vbv_bufsize=15000 / nal_hrd=vbr / filler=0 / ip_ratio=1.40 / aq=1:1.00
Язык                                     : Chinese
Default                                  : Да
Forced                                   : Нет

Аудио #1
Идентификатор                            : 2
Формат                                   : AC-3
Формат/Информация                        : Audio Coding 3
Коммерческое название                    : Dolby Digital
Идентификатор кодека                     : A_AC3
Продолжительность                        : 2 ч. 5 м.
Вид битрейта                             : Постоянный
Битрейт                                  : 192 Кбит/сек
Каналы                                   : 2 канала
ChannelLayout                            : L R
Частота                                  : 48,0 КГц
Частота кадров                           : 31,250 кадров/сек (1536 SPF)
Битовая глубина                          : 16 бит
Метод сжатия                             : С потерями
Размер потока                            : 172 Мбайт (2%)
Заголовок                                : MVO | HDRezka Studio
Язык                                     : Russian
ServiceKind                              : Complete Main
Default                                  : Да
Forced                                   : Нет

Аудио #2
Идентификатор                            : 3
Формат                                   : E-AC-3 JOC
Формат/Информация                        : Enhanced AC-3 with Joint Object Coding
Коммерческое название                    : Dolby Digital Plus with Dolby Atmos
Идентификатор кодека                     : A_EAC3
Продолжительность                        : 2 ч. 5 м.
Вид битрейта                             : Постоянный
Битрейт                                  : 768 Кбит/сек
Каналы                                   : 6 каналов
ChannelLayout                            : L R C LFE Ls Rs
Частота                                  : 48,0 КГц
Частота кадров                           : 31,250 кадров/сек (1536 SPF)
Метод сжатия                             : С потерями
Размер потока                            : 689 Мбайт (9%)
Заголовок                                : Mandarin
Язык                                     : Chinese
ServiceKind                              : Complete Main
Default                                  : Нет
Forced                                   : Нет
ComplexityIndex                          : 16
NumberOfDynamicObjects                   : 15
BedChannelCount                          : 1 канал
BedChannelConfiguration                  : LFE

Текст #1
Идентификатор                            : 4
Формат                                   : UTF-8
Идентификатор кодека                     : S_TEXT/UTF8
Идентификатор кодека/Информация          : UTF-8 Plain Text
Продолжительность                        : 1 ч. 57 м.
Битрейт                                  : 4 бит/сек
ElementCount                             : 88
Размер потока                            : 3,60 Кбайт (0%)
Заголовок                                : Forced
Язык                                     : Russian
Default                                  : Да
Forced                                   : Нет

Текст #2
Идентификатор                            : 5
Формат                                   : UTF-8
Идентификатор кодека                     : S_TEXT/UTF8
Идентификатор кодека/Информация          : UTF-8 Plain Text
Продолжительность                        : 1 ч. 59 м.
Битрейт                                  : 90 бит/сек
ElementCount                             : 1738
Размер потока                            : 78,9 Кбайт (0%)
Заголовок                                : Full
Язык                                     : Russian
Default                                  : Нет
Forced                                   : Нет

Текст #3
Идентификатор                            : 6
Формат                                   : UTF-8
Идентификатор кодека                     : S_TEXT/UTF8
Идентификатор кодека/Информация          : UTF-8 Plain Text
Продолжительность                        : 1 ч. 58 м.
Битрейт                                  : 59 бит/сек
ElementCount                             : 1653
Размер потока                            : 51,6 Кбайт (0%)
Заголовок                                : Full
Язык                                     : English
Default                                  : Нет
Forced                                   : Нет

Текст #4
Идентификатор                            : 7
Формат                                   : UTF-8
Идентификатор кодека                     : S_TEXT/UTF8
Идентификатор кодека/Информация          : UTF-8 Plain Text
Продолжительность                        : 1 ч. 58 м.
Битрейт                                  : 80 бит/сек
ElementCount                             : 2244
Размер потока                            : 69,7 Кбайт (0%)
Заголовок                                : SDH
Язык                                     : English
Default                                  : Нет
Forced                                   : Нет  



Скриншоты:
[+] Всего файлов в раздаче - 1:
The Wandering Earth.2019.WEB-Rip.1080p.mkv7.18 GB

Показать еще раздачи по запросу блуждающая:
2019-06-10 U Блуждающая Земля / Liu lang di qiu / The Wandering Earth (2019) WEB-DLRip | HDRezka Studio 1.95 GB ↑ 23 ↓ 13
2019-06-10 U Блуждающая Земля / Liu lang di qiu / The Wandering Earth (2019) WEB-DLRip-AVC от OlLanDGroup | P, A 1.46 GB ↑ 60 ↓ 20
2019-06-04 U Блуждающая Земля / Liu lang di qiu / The Wandering Earth (2019) WEBRip 720p | P, A 4.30 GB ↑ 178 ↓ 72
2019-05-06 U Блуждающая Земля / Liu lang di qiu / The Wandering Earth (2019) WEB-DL 1080p | L2, A 4.50 GB ↑ 57 ↓ 20
2019-05-04 U Блуждающая Земля / Liu lang di qiu / The Wandering Earth (2019) WEB-DLRip от ExKinoRay | L2 753.25 MB ↑ 33 ↓ 8
2019-05-04 U Блуждающая Земля / Liu lang di qiu / The Wandering Earth (2019) WEB-DLRip-AVC от ExKinoRay | L2 746.29 MB ↑ 45 ↓ 10
2019-05-03 U Блуждающая Земля / Liu lang di qiu / The Wandering Earth (2019) WEB-DL-HEVC 1080p | L2, A 3.76 GB ↑ 81 ↓ 16

Отзывы
kamelan1234
Смотрел еще в хреновом переводе, удивило, то, как китайцы выросли в качестве. Сюжжет вырвимозг, приличный графон. После задолбавшего марвела, похожего на "санта барбару" смотрится спокойно с интересом на вечер отвлечься. Мнение не навязываю.

dik_1
Вот теперь эту херь(для рифмы) можно и глянуть.

Зарегистрируйтесь чтобы добавить комментарий.
Обратная связь
Copyleft ©