↑↓Torrent.by
Поиск
Логин: Регистрация
Пароль: Восстановить пароль
Загрузка...

Бэтмен против Черепашек-ниндзя / Batman vs. Teenage Mutant Ninja Turtles (2019) WEB-DL 1080p от NewSeriesHD | P, L

Скачать betmen-protiv-cherepashek-nindzya-batman-vs-teenage-mutant-ninja-turtles-2019-web-dl-1080p-ot-newserieshd-p-l.torrent
U Магнитная ссылка Размер: 3.44 GB Раздают: 72 Качают: 15 Добавлен: 2019-06-04 06:45:10
Бэтмен против Черепашек-ниндзя / Batman vs. Teenage Mutant Ninja Turtles (2019) WEB-DL 1080p от NewSeriesHD | P, L

Название: Бэтмен против Черепашек-ниндзя
Оригинальное название: Batman vs. Teenage Mutant Ninja Turtles
Год выхода: 2019
Жанр: мультфильм, фантастика, фэнтези, боевик, комедия, криминал, приключения
Режиссер: Джейк Касторена / Jake Castorena
Роли озвучивали: Трой Бэйкер, Эрик Бауза, Даррен Крисс, Кайл Муни, Барон Вон, Карлос Аласраки, Кэс Анвар, Рэйчел Блум, Джон Ди Маджио

О фильме:
Бэтмен объединяется с Черепашками-ниндзя, чтобы остановить Шредера и Ра’с аль Гула...

Страна: США
Студия: DC Entertainment, Warner Bros. Animation, Nickelodeon, Dr. Movie
Продолжительность: 01:27:07

Файл
Качество: WEB-DL 1080p by CMRG
Кодек: H264
Видео: 1912x1072 (16:9), 23.976 fps, MPEG-4 AVC ~4 828 kbps avg
Аудио: AC3 2.0, 48.0 kHz, 192 kbps | Профессиональный (многоголосый, закадровый) HDrezka Studio
Аудио: ACС 2.0, 44.1 kHz, 128 kbps | Любительский (многоголосый, закадровый) ZM-SHOW
Аудио: AC3 5.1, 48.0 kHz, 384 kbps | Eng
Субтитры: Русские от UGN SUBZ Translators и Английские (srt)

Релиз от NewSeriesHD
[+] Media Info

General
Unique ID                   : 178009679471681998116130981333970380963 (0x85EB6ACE2D9A07F0871E7A97E992E8A3)
Complete name               : E:[NewSeriesHD] Batman vs Teenage Mutant Ninja Turtles (2019)[NewSeriesHD] Batman vs Teenage Mutant Ninja Turtles [HDrezka Studio]+[ZM-SHOW]+[ENG] [Sub RUS+ENG] {WEB-DL 1080p by CMRG}.mkv
Format                      : Matroska
Format version              : Version 4 / Version 2
File size                   : 3.44 GiB
Duration                    : 1 h 27 min
Overall bit rate            : 5 641 kb/s
Movie name                  : NewSeriesHD
Encoded date                : UTC 2019-06-03 10:41:50
Writing application         : mkvmerge v8.0.0 ('Til The Day That I Die') 32bit
Writing library             : libebml v1.3.1 + libmatroska v1.4.2

Video
ID                          : 1
Format                      : AVC
Format/Info                 : Advanced Video Codec
Format profile              : High@L4
Format settings             : CABAC / 4 Ref Frames
Format settings, CABAC      : Yes
Format settings, ReFrames   : 4 frames
Codec ID                    : V_MPEG4/ISO/AVC
Duration                    : 1 h 27 min
Bit rate                    : 4 932 kb/s
Width                       : 1 912 pixels
Height                      : 1 072 pixels
Display aspect ratio        : 16:9
Frame rate mode             : Constant
Frame rate                  : 23.976 (23976/1000) FPS
Color space                 : YUV
Chroma subsampling          : 4:2:0
Bit depth                   : 8 bits
Scan type                   : Progressive
Bits/(Pixel*Frame)          : 0.100
Stream size                 : 3.00 GiB (87%)
Language                    : English
Default                     : Yes
Forced                      : No
Color range                 : Limited
Color primaries             : BT.709
Transfer characteristics    : BT.709
Matrix coefficients         : BT.709

Audio #1
ID                          : 2
Format                      : AC-3
Format/Info                 : Audio Coding 3
Commercial name             : Dolby Digital
Codec ID                    : A_AC3
Duration                    : 1 h 27 min
Bit rate mode               : Constant
Bit rate                    : 192 kb/s
Channel(s)                  : 2 channels
Channel positions           : Front: L R
Sampling rate               : 48.0 kHz
Frame rate                  : 31.250 FPS (1536 SPF)
Bit depth                   : 16 bits
Compression mode            : Lossy
Delay relative to video     : -43 ms
Stream size                 : 119 MiB (3%)
Title                       : MVO, HDrezka Studio
Language                    : Russian
Service kind                : Complete Main
Default                     : Yes
Forced                      : No

Audio #2
ID                          : 3
Format                      : AAC
Format/Info                 : Advanced Audio Codec
Format profile              : LC
Codec ID                    : A_AAC-2
Duration                    : 1 h 27 min
Bit rate                    : 136 kb/s
Channel(s)                  : 2 channels
Channel positions           : Front: L R
Sampling rate               : 44.1 kHz
Frame rate                  : 43.066 FPS (1024 SPF)
Compression mode            : Lossy
Delay relative to video     : -43 ms
Stream size                 : 85.1 MiB (2%)
Title                       : MVO, ZM-SHOW
Language                    : Russian
Default                     : No
Forced                      : No

Audio #3
ID                          : 4
Format                      : AC-3
Format/Info                 : Audio Coding 3
Commercial name             : Dolby Digital
Codec ID                    : A_AC3
Duration                    : 1 h 27 min
Bit rate mode               : Constant
Bit rate                    : 384 kb/s
Channel(s)                  : 6 channels
Channel positions           : Front: L C R, Side: L R, LFE
Sampling rate               : 48.0 kHz
Frame rate                  : 31.250 FPS (1536 SPF)
Bit depth                   : 16 bits
Compression mode            : Lossy
Delay relative to video     : -43 ms
Stream size                 : 239 MiB (7%)
Title                       : Original
Language                    : English
Service kind                : Complete Main
Default                     : No
Forced                      : No

Text #1
ID                          : 5
Format                      : UTF-8
Codec ID                    : S_TEXT/UTF8
Codec ID/Info               : UTF-8 Plain Text
Duration                    : 1 h 26 min
Bit rate                    : 92 b/s
Count of elements           : 1032
Stream size                 : 58.2 KiB (0%)
Title                       : UGN SUBZ Translators
Language                    : Russian
Default                     : No
Forced                      : No

Text #2
ID                          : 6
Format                      : UTF-8
Codec ID                    : S_TEXT/UTF8
Codec ID/Info               : UTF-8 Plain Text
Duration                    : 1 h 26 min
Bit rate                    : 58 b/s
Count of elements           : 1387
Stream size                 : 37.3 KiB (0%)
Title                       : Original
Language                    : English
Default                     : No
Forced                      : No

Menu
00:00:00.000                : en:1
00:09:08.000                : en:2
00:21:13.000                : en:3
00:32:21.000                : en:4
00:41:15.000                : en:5
00:50:38.000                : en:6
01:00:42.000                : en:7
01:11:20.000                : en:8
01:23:55.000                : en:9




Скриншоты:
[+] Всего файлов в раздаче - 1:
[NewSeriesHD] Batman vs Teenage Mutant Ninja Turtles [HDrezka Studio]+[ZM-SHOW]+[ENG] [Sub RUS+ENG] {WEB-DL 1080p by CMRG}.mkv3.44 GB

Показать еще раздачи по запросу бэтмен:
2019-06-09 U Бэтмен против Черепашек-ниндзя / Batman vs. Teenage Mutant Ninja Turtles (2019) WEB-DLRip от Portablius | P 743.16 MB ↑ 30 ↓ 6
2019-06-08 U Бэтмен против Черепашек-ниндзя / Batman vs. Teenage Mutant Ninja Turtles (2019) WEB-DL 1080p от NewSeriesHD | P, L 3.83 GB ↑ 45 ↓ 11
2019-05-27 U Бэтмен против Черепашек-ниндзя / Batman vs. Teenage Mutant Ninja Turtles (2019) WEB-DLRip | ZM-SHOW 1.27 GB ↑ 93 ↓ 16
2019-05-26 U Бэтмен против Черепашек-ниндзя / Batman vs. Teenage Mutant Ninja Turtles (2019) WEB-DL 1080p | ZM-SHOW 3.09 GB ↑ 173 ↓ 49
2019-05-16 U Бэтмен против Черепашек-ниндзя / Batman vs. Teenage Mutant Ninja Turtles (2019) WEB-DL 1080p | Sub 3.24 GB ↑ 89 ↓ 27
2018-06-20 U Бэтмен: Убийственная шутка / Batman: The Killing Joke (2016) BDRip от ExKinoRay | D 1.46 GB ↑ 67 ↓ 12
2018-04-30 U Бэтмен-ниндзя / Batman Ninja (2018) WEB-DLRip 720p | Flarrow Films 3.22 GB ↑ 91 ↓ 29

Отзывы
Зарегистрируйтесь чтобы добавить комментарий.
Обратная связь
Copyleft ©