↑↓Torrent.by
Поиск
Логин: Регистрация
Пароль: Восстановить пароль
Загрузка...

Варавва (2019) WEB-DLRip | iTunes

Скачать varavva-2019-web-dlrip-itunes.torrent
U Магнитная ссылка Размер: 744.96 MB Раздают: 74 Качают: 6 Добавлен: 2019-06-04 06:45:44
Варавва (2019) WEB-DLRip | iTunes

Оригинальное название: Варавва
Год выпуска: 2019
Жанр:  Драма, криминал, биография, история
Выпущено: Россия, Артворкс Фильм
Режиссер: Евгений Емелин
В ролях: Павел Крайнов, Регина Хакимова, Залим Мирзоев, Александр Лаптий, Елена Подкаминская, Константин Самоуков, Сергей Санаев, Альберт Филозов, Виталий Максименко, Светлана Агафошина

О фильме: Всем знакома библейская история о смерти и воскресении Христа. Но как выглядели события с точки зрения Вараввы, убийцы, отпущенного толпой вместо Иисуса? Чем обернулось ему это помилование? Варавва оказывается неожиданным образом связан с Иудой, который не смог заглушить в себе голос совести после предательства Христа и не нашел в себе силы покаяться. Варавва пытается понять, кто же тот человек, который вместо него распят, и разобраться, действительно ли он - Сын Божий? В поисках истины Варавва получает ответы на вопросы, которые заставляют его пересмотреть взгляды на всю свою жизнь.

Качество: WEB-DLRip
Видео: 688x288 (2.39:1), 25 fps, XviD build 50 ~770 kbps avg, 0.16 bit/pixel
Аудио: 48 kHz, MPEG Layer 3, 2 ch, ~128.00 kbps avg
Продолжительность: 01:54:45
Язык: Русский


[+] MediaInfo:
Общее
Полное имя: C:Варавва_2019_WEB-DLRip.740.mb.avi
Формат: AVI
Формат/Информация: Audio Video Interleave
Размер файла: 745 Мбайт
Продолжительность: 1 ч. 54 м.
Общий поток: 908 Кбит/сек
Программа кодирования: VirtualDubMod 1.5.10.3 | (build 2550/release)
Библиотека кодирования: VirtualDubMod build 2550/release

Видео
Идентификатор: 0
Формат: MPEG-4 Visual
Профиль формата: Advanced Simple@L5
Параметр BVOP формата: 1
Параметр QPel формата: Нет
Параметр GMC формата: Без точки перехода
Параметр матрицы формата: Default (H.263)
Идентификатор кодека: XVID
Идентификатор кодека/Подсказка: XviD
Продолжительность: 1 ч. 54 м.
Битрейт: 770 Кбит/сек
Ширина: 688 пикселей
Высота: 288 пикселей
Соотношение сторон: 2,40:1
Частота кадров: 25,000 кадров/сек
Цветовое пространство: YUV
Субдискретизация насыщенности: 4:2:0
Битовая глубина: 8 бит
Тип развёртки: Прогрессивная
Метод сжатия: С потерями
Бит/(Пиксели*Кадры): 0.155
Размер потока: 632 Мбайт (85%)
Библиотека кодирования: XviD 1.2.1 (UTC 2008-12-04)

Аудио
Идентификатор: 1
Формат: MPEG Audio
Версия формата: Version 1
Профиль формата: Layer 3
Идентификатор кодека: 55
Идентификатор кодека/Подсказка: MP3
Продолжительность: 1 ч. 54 м.
Вид битрейта: Постоянный
Битрейт: 128 Кбит/сек
Каналы: 2 канала
Частота: 48,0 КГц
Метод сжатия: С потерями
Размер потока: 105 Мбайт (14%)
Выравнивание: Соединение по промежуткам
Продолжительность промежутка: 40 мс. (1,00 видеокадр)
Время предзагрузки промежутка: 504 мс.
Библиотека кодирования: LAME3.99r
Настройки программы: -m s -V 4 -q 2 -lowpass 17 -b 128



Скриншоты:
[+] Всего файлов в раздаче - 1:
Варавва_2019_WEB-DLRip.740.mb.avi744.96 MB

Похожие раздачи по запросу - варавва:
2019-06-20 U Варавва (2019) WEB-DL 1080p | iTunes 4.11 GB ↑ 112 ↓ 51
2019-06-03 U Варавва (2019) WEB-DLRip | iTunes 1.46 GB ↑ 379 ↓ 88
2014-02-23 U Варавва / Barabbas (2012) BDRip 2.31 GB ↑ 524 ↓ 254

Отзывы
Зарегистрируйтесь чтобы добавить комментарий.
Обратная связь
Copyleft ©