↑↓torrent.by
Поиск
Логин: Регистрация
Пароль: Восстановить пароль

Бывший сотрудник (2012) WEBRip-AVC

Скачать byvshiy-sotrudnik-2012-webrip-avc.torrent
U Магнитная ссылка Размер: 1.37 GB Раздают: 82 Качают: 31 Добавлен: 2021-09-08 08:13:37
Бывший сотрудник (2012) WEBRip-AVC

Название: Бывший сотрудник
Год выхода: 2012
Жанр: Драма, криминал
Режиссер: Олег Ларин
В ролях: Кирилл Полухин, Максим Коновалов, Вера Баханкова, Максим Меркулов, Юрий Архангельский, Дианна Дезмари, Никита Морозов, Вячеслав Аркунов, Полина Ларина, Сергей Евдокимов

О фильме: Артем Семенов – опер уголовного розыска, который «женат» на своей работе и как результат имеет проблемы непосредственно в семье. У Артема есть близкие друзья Назаров и Петрович, с которыми он съел не один пуд соли, на которых может положиться во всем. В городе, после долгого отсутствия, появляется опасный преступник по кличке Медведь. Он устраивает несколько ограблений инкассаторов, безжалостно убивая всех, кто встает у него на пути. Артему и его друзьям удается арестовать бандита, Артем предупреждают, что Медведя покрывает, кто-то из сотрудников милиции, но он не придает значения этой информации. А зря… Медведь совершает дерзкий побег, во время которого убивает Петровича. В организации побега обвиняют Артема. Прямых улик против него нет, но у него дома обнаруживают крупную сумму денег и пистолет. Артема выгоняют со службы, он становится БС – бывшим сотрудником. Он не может устроится на работу. Бывшие коллеги не подают ему руки, преступники откровенно над ним насмехаются. Артему на собственной шкуре приходится испытать, что чувствует человек, которого «отторгает система». Артем еще не знает, что ему придется вновь столкнуться с Медведем, и узнать имя предателя, действия которого привели к гибели Петровича.

Страна: Россия
Студия: «Триикс Медиа»
Продолжительность: 01:29:41

Файл
Кодек: h.264
Качество: WEBRip
Видео: AVC, 864x468, ~2000 kbps
Звук: AAC, 2 ch, 192 Kbps
Субтитры: Русские


[+] MediaInfo:
General
Unique ID : 313318019196563997289563696272981286286 (0xEBB6DB03ED63175AA2B3C1CB8046DD8E)
Complete name : E:BS_2012.mkv
Format : Matroska
Format version : Version 4
File size : 1.37 GiB
Duration : 1 h 29 min
Overall bit rate : 2 185 kb/s
Encoded date : UTC 2021-09-07 13:23:57
Writing application : mkvmerge v60.0.0 ('Are We Copies?') 64-bit
Writing library : libebml v1.4.2 + libmatroska v1.6.4

Video
ID : 1
Format : AVC
Format/Info : Advanced Video Codec
Format profile : High@L4.1
Format settings : CABAC / 3 Ref Frames
Format settings, CABAC : Yes
Format settings, ReFrames : 3 frames
Codec ID : V_MPEG4/ISO/AVC
Duration : 1 h 29 min
Bit rate mode : Constant
Bit rate : 2 000 kb/s
Width : 864 pixels
Height : 486 pixels
Display aspect ratio : 16:9
Frame rate mode : Constant
Frame rate : 25.000 FPS
Standard : PAL
Color space : YUV
Chroma subsampling : 4:2:0
Bit depth : 8 bits
Scan type : Progressive
Bits/(Pixel*Frame) : 0.191
Stream size : 1.25 GiB (91%)
Language : English
Default : Yes
Forced : No
Color range : Limited
Color primaries : BT.601 NTSC
Transfer characteristics : BT.601
Matrix coefficients : BT.601

Audio
ID : 2
Format : AAC LC
Format/Info : Advanced Audio Codec Low Complexity
Codec ID : A_AAC-2
Duration : 1 h 29 min
Bit rate : 192 kb/s
Channel(s) : 2 channels
Channel layout : L R
Sampling rate : 48.0 kHz
Frame rate : 46.875 FPS (1024 SPF)
Compression mode : Lossy
Stream size : 121 MiB (9%)
Language : English
Default : Yes
Forced : No

Text
ID : 3
Format : UTF-8
Codec ID : S_TEXT/UTF8
Codec ID/Info : UTF-8 Plain Text
Duration : 1 h 29 min
Bit rate : 78 b/s
Count of elements : 987
Stream size : 51.4 KiB (0%)
Default : Yes
Forced : No



Скриншоты:
[+] Всего файлов в раздаче - 1:
BS_2012.mkv1.37 GB

Отзывы
Зарегистрируйтесь чтобы добавить комментарий.
Загрузите программу
  byTorrent
Обратная связь
Copyleft ©