↑↓Torrent.by
Поиск
Логин: Регистрация
Пароль: Восстановить пароль
Загрузка...

Блуждающая Земля / Liu lang di qiu / The Wandering Earth (2019) WEBRip 720p | P, A

Скачать bluzhdayuschaya-zemlya-liu-lang-di-qiu-the-wandering-earth-2019-webrip-720p-p-a.torrent
U Магнитная ссылка Размер: 4.30 GB Раздают: 178 Качают: 74 Добавлен: 2019-06-04 20:56:44
Блуждающая Земля / Liu lang di qiu / The Wandering Earth (2019) WEBRip 720p | P, A

Название: Блуждающая Земля
Оригинальное название: Liu lang di qiu / The Wandering Earth
Год выхода: 2019
Жанр: Фантастика, боевик
Режиссер: Франт Гво
В ролях: Джеки Ву, Цюй Чусяо, Ли Гуанцзе, Нг Ман-Тат, Чжао Цзиньмай, Цюй Цзинцзин, Чжан Ичи, Ян Хаоюй, Аркадий Шароградский, Ли Хунчэнь, Цзян Чжиган, Чжан Хуань, Лэй Цзяинь, Нин Хао, Ван Чжи

О фильме:
В ближайшем будущем становится известно, что Солнце скоро погаснет, и Солнечная система будет разрушена. Тогда человечество запускает масштабный проект под названием «Блуждающая Земля», цель которого — с помощью огромных двигателей по всему миру сдвинуть Землю и полететь искать новое пристанище. Через 17 лет путешествия земляне приближаются к Юпитеру. Гравитация гигантской планеты меняет траекторию Земли, вызывает глобальные землетрясения и ставит под угрозу весь проект по выживанию человечества.

Страна: Китай
Студия: Beijing Culture, China Film Company Limited., United Entertainment Partners
Продолжительность: 02:05:30
Перевод: Профессиональный многоголосый, Авторский

Файл
Кодек: AVC
Качество: WEBRip 720p | The.Wandering.Earth.2019.CHINESE.720p.NF.WEBRip.DDP5.1.Atmos.x264-NTG
Видео: MPEG-4 AVC, 3830 Kбит/с, 1280x720, 24.000 кадр/с
Звук: ► Без рекламы!
Аудио #1: Русский ( АС3, 2ch, 192 Кбит/с, 48.0 KHz) Профессиональный (многоголосый, закадровый) HDRezka Studio
Аудио #2: Русский ( АС3, 2ch, 256 Кбит/с, 48.0 KHz) Авторский (одноголосый, закадровый) Андрей Дольский
Аудио #3: Китайский (E-AC3+Atmos, 6ch, 768 Кбит/с, 48.0 KHz)
Субтитры: Русские (форс, полные), английские, немецкие, французские, итальянские, испанские, финские, японские, турецкие, китайские | Нетфликс
Трейлер




[+] MediaInfo
Источник: The.Wandering.Earth.2019.CHINESE.720p.NF.WEBRip.DDP5.1.Atmos.x264-NTG
General
Unique ID                      : 183882594113486993135485063757107432376 (0x8A567FDA5919EE9181B2BC9B262A0BB8)
Complete name                  : The.Wandering.Earth.2019.NF.WEB-DL.720p.mkv
Format                         : Matroska
Format version                 : Version 4
File size                      : 4.30 GiB
Duration                       : 2 h 5 min
Overall bit rate mode          : Variable
Overall bit rate               : 4 909 kb/s
Encoded date                   : UTC 2019-06-04 09:54:02
Writing application            : mkvmerge v7.1.0 ('Good Love') 64bit built on Jul 27 2014 13:06:55
Writing library                : libebml v1.3.0 + libmatroska v1.4.1

Video
ID                             : 1
Format                         : AVC
Format/Info                    : Advanced Video Codec
Format profile                 : Main@L3.1
Format settings                : CABAC / 3 Ref Frames
Format settings, CABAC         : Yes
Format settings, ReFrames      : 3 frames
Codec ID                       : V_MPEG4/ISO/AVC
Duration                       : 2 h 5 min
Bit rate mode                  : Variable
Bit rate                       : 3 830 kb/s
Maximum bit rate               : 5 745 kb/s
Width                          : 1 280 pixels
Height                         : 720 pixels
Display aspect ratio           : 16:9
Frame rate mode                : Constant
Frame rate                     : 24.000 FPS
Color space                    : YUV
Chroma subsampling             : 4:2:0
Bit depth                      : 8 bits
Scan type                      : Progressive
Bits/(Pixel*Frame)             : 0.173
Stream size                    : 3.23 GiB (75%)
Writing library                : x264 core 148 r2715 7e75228
Encoding settings              : cabac=1 / ref=3 / deblock=1:0:0 / analyse=0x1:0x111 / me=umh / subme=10 / psy=1 / psy_rd=1.00:0.00 / mixed_ref=1 / me_range=24 / chroma_me=1 / trellis=2 / 8x8dct=0 / cqm=0 / deadzone=21,11 / fast_pskip=1 / chroma_qp_offset=-2 / threads=8 / lookahead_threads=1 / sliced_threads=0 / nr=0 / decimate=1 / interlaced=0 / bluray_compat=0 / stitchable=1 / constrained_intra=0 / bframes=2 / b_pyramid=0 / b_adapt=2 / b_bias=0 / direct=3 / weightb=1 / open_gop=0 / weightp=2 / keyint=48 / keyint_min=25 / scenecut=0 / intra_refresh=0 / rc_lookahead=48 / rc=2pass / mbtree=1 / bitrate=3830 / ratetol=1.0 / qcomp=0.50 / qpmin=6 / qpmax=51 / qpstep=4 / cplxblur=20.0 / qblur=0.5 / vbv_maxrate=5745 / vbv_bufsize=7660 / nal_hrd=vbr / filler=0 / ip_ratio=1.40 / aq=1:1.00
Language                       : Chinese
Default                        : Yes
Forced                         : No

Audio #1
ID                             : 2
Format                         : AC-3
Format/Info                    : Audio Coding 3
Commercial name                : Dolby Digital
Codec ID                       : A_AC3
Duration                       : 2 h 5 min
Bit rate mode                  : Constant
Bit rate                       : 192 kb/s
Channel(s)                     : 2 channels
Channel layout                 : L R
Sampling rate                  : 48.0 kHz
Frame rate                     : 31.250 FPS (1536 SPF)
Bit depth                      : 16 bits
Compression mode               : Lossy
Stream size                    : 172 MiB (4%)
Title                          : MVO | HDRezka Studio
Language                       : Russian
Service kind                   : Complete Main
Default                        : Yes
Forced                         : No

Audio #2
ID                             : 3
Format                         : AC-3
Format/Info                    : Audio Coding 3
Commercial name                : Dolby Digital
Codec ID                       : A_AC3
Duration                       : 2 h 5 min
Bit rate mode                  : Constant
Bit rate                       : 256 kb/s
Channel(s)                     : 2 channels
Channel layout                 : L R
Sampling rate                  : 48.0 kHz
Frame rate                     : 31.250 FPS (1536 SPF)
Bit depth                      : 16 bits
Compression mode               : Lossy
Stream size                    : 229 MiB (5%)
Title                          : Андрей Дольский
Language                       : Russian
Service kind                   : Complete Main
Default                        : No
Forced                         : No

Audio #3
ID                             : 4
Format                         : E-AC-3 JOC
Format/Info                    : Enhanced AC-3 with Joint Object Coding
Commercial name                : Dolby Digital Plus with Dolby Atmos
Codec ID                       : A_EAC3
Duration                       : 2 h 5 min
Bit rate mode                  : Constant
Bit rate                       : 768 kb/s
Channel(s)                     : 6 channels
Channel layout                 : L R C LFE Ls Rs
Sampling rate                  : 48.0 kHz
Frame rate                     : 31.250 FPS (1536 SPF)
Compression mode               : Lossy
Stream size                    : 689 MiB (16%)
Title                          : Mandarin
Language                       : Chinese
Service kind                   : Complete Main
Default                        : No
Forced                         : No
Complexity index               : 16
Number of dynamic objects      : 15
Bed channel count              : 1 channel
Bed channel configuration      : LFE

Text #1
ID                             : 5
Format                         : UTF-8
Codec ID                       : S_TEXT/UTF8
Codec ID/Info                  : UTF-8 Plain Text
Duration                       : 1 h 57 min
Bit rate                       : 4 b/s
Count of elements              : 88
Stream size                    : 3.60 KiB (0%)
Title                          : Forced
Language                       : Russian
Default                        : Yes
Forced                         : No

Text #2
ID                             : 6
Format                         : UTF-8
Codec ID                       : S_TEXT/UTF8
Codec ID/Info                  : UTF-8 Plain Text
Duration                       : 1 h 59 min
Bit rate                       : 90 b/s
Count of elements              : 1738
Stream size                    : 78.9 KiB (0%)
Language                       : Russian
Default                        : No
Forced                         : No

Text #3
ID                             : 7
Format                         : UTF-8
Codec ID                       : S_TEXT/UTF8
Codec ID/Info                  : UTF-8 Plain Text
Duration                       : 1 h 58 min
Bit rate                       : 59 b/s
Count of elements              : 1653
Stream size                    : 51.6 KiB (0%)
Language                       : English
Default                        : No
Forced                         : No

Text #4
ID                             : 8
Format                         : UTF-8
Codec ID                       : S_TEXT/UTF8
Codec ID/Info                  : UTF-8 Plain Text
Duration                       : 1 h 58 min
Bit rate                       : 80 b/s
Count of elements              : 2244
Stream size                    : 69.7 KiB (0%)
Title                          : SDH
Language                       : English
Default                        : No
Forced                         : No

Text #5
ID                             : 9
Format                         : UTF-8
Codec ID                       : S_TEXT/UTF8
Codec ID/Info                  : UTF-8 Plain Text
Duration                       : 1 h 59 min
Bit rate                       : 62 b/s
Count of elements              : 1749
Stream size                    : 55.0 KiB (0%)
Language                       : German
Default                        : No
Forced                         : No

Text #6
ID                             : 10
Format                         : UTF-8
Codec ID                       : S_TEXT/UTF8
Codec ID/Info                  : UTF-8 Plain Text
Duration                       : 1 h 59 min
Bit rate                       : 62 b/s
Count of elements              : 1766
Stream size                    : 54.7 KiB (0%)
Language                       : French
Default                        : No
Forced                         : No

Text #7
ID                             : 11
Format                         : UTF-8
Codec ID                       : S_TEXT/UTF8
Codec ID/Info                  : UTF-8 Plain Text
Duration                       : 1 h 59 min
Bit rate                       : 62 b/s
Count of elements              : 1795
Stream size                    : 54.6 KiB (0%)
Language                       : Italian
Default                        : No
Forced                         : No

Text #8
ID                             : 12
Format                         : UTF-8
Codec ID                       : S_TEXT/UTF8
Codec ID/Info                  : UTF-8 Plain Text
Duration                       : 1 h 59 min
Bit rate                       : 64 b/s
Count of elements              : 1795
Stream size                    : 56.6 KiB (0%)
Title                          : European
Language                       : Spanish
Default                        : No
Forced                         : No

Text #9
ID                             : 13
Format                         : UTF-8
Codec ID                       : S_TEXT/UTF8
Codec ID/Info                  : UTF-8 Plain Text
Duration                       : 1 h 59 min
Bit rate                       : 60 b/s
Count of elements              : 1801
Stream size                    : 52.6 KiB (0%)
Language                       : Czech
Default                        : No
Forced                         : No

Text #10
ID                             : 14
Format                         : UTF-8
Codec ID                       : S_TEXT/UTF8
Codec ID/Info                  : UTF-8 Plain Text
Duration                       : 1 h 59 min
Bit rate                       : 57 b/s
Count of elements              : 1804
Stream size                    : 50.3 KiB (0%)
Language                       : Hungarian
Default                        : No
Forced                         : No

Text #11
ID                             : 15
Format                         : UTF-8
Codec ID                       : S_TEXT/UTF8
Codec ID/Info                  : UTF-8 Plain Text
Duration                       : 1 h 59 min
Bit rate                       : 60 b/s
Count of elements              : 1791
Stream size                    : 53.0 KiB (0%)
Language                       : Finnish
Default                        : No
Forced                         : No

Text #12
ID                             : 16
Format                         : UTF-8
Codec ID                       : S_TEXT/UTF8
Codec ID/Info                  : UTF-8 Plain Text
Duration                       : 1 h 59 min
Bit rate                       : 55 b/s
Count of elements              : 1455
Stream size                    : 48.2 KiB (0%)
Language                       : Japanese
Default                        : No
Forced                         : No

Text #13
ID                             : 17
Format                         : UTF-8
Codec ID                       : S_TEXT/UTF8
Codec ID/Info                  : UTF-8 Plain Text
Duration                       : 1 h 59 min
Bit rate                       : 62 b/s
Count of elements              : 1805
Stream size                    : 54.6 KiB (0%)
Language                       : Turkish
Default                        : No
Forced                         : No

Text #14
ID                             : 18
Format                         : UTF-8
Codec ID                       : S_TEXT/UTF8
Codec ID/Info                  : UTF-8 Plain Text
Duration                       : 1 h 57 min
Bit rate                       : 52 b/s
Count of elements              : 1739
Stream size                    : 45.3 KiB (0%)
Title                          : Simplified
Language                       : Chinese
Default                        : No
Forced                         : No

Text #15
ID                             : 19
Format                         : UTF-8
Codec ID                       : S_TEXT/UTF8
Codec ID/Info                  : UTF-8 Plain Text
Duration                       : 1 h 59 min
Bit rate                       : 55 b/s
Count of elements              : 1798
Stream size                    : 48.2 KiB (0%)
Title                          : Traditional
Language                       : Chinese
Default                        : No
Forced                         : No



Скриншоты:
[+] Всего файлов в раздаче - 1:
The.Wandering.Earth.2019.NF.WEB-DL.720p.mkv4.30 GB

Показать еще раздачи по запросу блуждающая:
2019-06-10 U Блуждающая Земля / Liu lang di qiu / The Wandering Earth (2019) WEB-DLRip | HDRezka Studio 1.95 GB ↑ 24 ↓ 13
2019-06-10 U Блуждающая Земля / Liu lang di qiu / The Wandering Earth (2019) WEB-DLRip-AVC от OlLanDGroup | P, A 1.46 GB ↑ 63 ↓ 21
2019-06-04 U Блуждающая Земля / Liu lang di qiu / The Wandering Earth (2019) WEBRip 1080p | HDRezka Studio 2К7.18 GB ↑ 165 ↓ 84
2019-05-06 U Блуждающая Земля / Liu lang di qiu / The Wandering Earth (2019) WEB-DL 1080p | L2, A 4.50 GB ↑ 59 ↓ 20
2019-05-04 U Блуждающая Земля / Liu lang di qiu / The Wandering Earth (2019) WEB-DLRip от ExKinoRay | L2 753.25 MB ↑ 33 ↓ 8
2019-05-04 U Блуждающая Земля / Liu lang di qiu / The Wandering Earth (2019) WEB-DLRip-AVC от ExKinoRay | L2 746.29 MB ↑ 45 ↓ 10
2019-05-03 U Блуждающая Земля / Liu lang di qiu / The Wandering Earth (2019) WEB-DL-HEVC 1080p | L2, A 3.76 GB ↑ 81 ↓ 16

Отзывы
Зарегистрируйтесь чтобы добавить комментарий.
Обратная связь
Copyleft ©