↑↓Torrent.by
Поиск
Логин: Регистрация
Пароль: Восстановить пароль
Загрузка...

Поезд дальше не идет / Stag Night (2008) BDRip-AVC | P

Скачать poezd-dalshe-ne-idet-stag-night-2008-bdrip-avc-p.torrent
U Магнитная ссылка Размер: 736.88 MB Раздают: 88 Качают: 23 Добавлен: 2019-06-04 20:57:09
Поезд дальше не идет / Stag Night (2008) BDRip-AVC | P

Название: Поезд дальше не идет
Оригинальное название: Stag Night
Год выхода: 2008
Жанр: Ужасы, триллер
Режиссер: Питер Э. Даулинг
В ролях: Кип Парду, Винесса Шоу, Брекин Мейер, Скотт Эдкинс, Карл Джиари, Сара Бэрранд, Рэйчел Олива, Лука Берковичи, Итай Дьяков, Радослав Парванов, Николай Сотиров

О фильме:
Планируя добраться до другого бара и продолжить прерванное празднование мальчишника, четверо парней успевают запрыгнуть в последний ночной поезд метро и встречают в нём двух девушек. Во время знакомства происходит неприятный инцидент, после чего вся компания оказывается на станции, заброшенной в далёких 70-х. Начав исследовать туннели в поисках выхода, молодые люди становятся свидетелями жестокого убийства полицейского группой бездомных людей, которые начинают на них охоту.

 
Страна: США
Продолжительность: 01:23:31
Перевод: Профессиональный (многоголосый, закадровый)

Файл
Кодек: H.264
Качество: BDRip-AVC
Видео: 768x432, 23.976 fps, 1170kb/s
Звук: AAC, 2 ch, 76 kbps

Релиз от: donadar


[+] MI
General
Unique ID                   : 330403127175535269073305885137397426706 (0xF89153DFDD5F2B2246D3BBE0E5492A12)
Complete name               : C:UsersПашаDownloadsПоезд дальше не идет.mkv
Format                      : Matroska
Format version              : Version 4
File size                   : 737 MiB
Duration                    : 1 h 23 min
Overall bit rate            : 1 234 kb/s
Encoded date                : UTC 2019-06-03 18:17:34
Writing application         : mkvmerge v33.1.0 ('Primrose') 64-bit
Writing library             : libebml v1.3.7 + libmatroska v1.5.0
Cover                       : Yes
Attachments                 : cover.jpg

Video
ID                          : 1
Format                      : AVC
Format/Info                 : Advanced Video Codec
Format profile              : High@L4.1
Format settings             : CABAC / 12 Ref Frames
Format settings, CABAC      : Yes
Format settings, ReFrames   : 12 frames
Codec ID                    : V_MPEG4/ISO/AVC
Duration                    : 1 h 23 min
Bit rate                    : 1 170 kb/s
Width                       : 768 pixels
Height                      : 432 pixels
Display aspect ratio        : 16:9
Frame rate mode             : Constant
Frame rate                  : 23.976 (24000/1001) FPS
Color space                 : YUV
Chroma subsampling          : 4:2:0
Bit depth                   : 8 bits
Scan type                   : Progressive
Bits/(Pixel*Frame)          : 0.147
Stream size                 : 690 MiB (94%)
Writing library             : x264 core 146 r2538 121396c
Encoding settings           : cabac=1 / ref=12 / deblock=1:-3:-3 / analyse=0x3:0x113 / me=umh / subme=10 / psy=1 / psy_rd=1.00:0.15 / mixed_ref=1 / me_range=32 / chroma_me=1 / trellis=2 / 8x8dct=1 / cqm=0 / deadzone=21,11 / fast_pskip=0 / chroma_qp_offset=-3 / threads=8 / lookahead_threads=1 / sliced_threads=0 / nr=0 / decimate=0 / interlaced=0 / bluray_compat=0 / constrained_intra=0 / bframes=12 / b_pyramid=2 / b_adapt=2 / b_bias=0 / direct=3 / weightb=1 / open_gop=0 / weightp=2 / keyint=250 / keyint_min=23 / scenecut=40 / intra_refresh=0 / rc_lookahead=40 / rc=2pass / mbtree=1 / bitrate=1170 / ratetol=1.0 / qcomp=0.60 / qpmin=0 / qpmax=69 / qpstep=4 / cplxblur=20.0 / qblur=0.5 / vbv_maxrate=14000 / vbv_bufsize=14000 / nal_hrd=none / filler=0 / ip_ratio=1.40 / aq=3:1.00
Language                    : English
Default                     : Yes
Forced                      : No

Audio
ID                          : 2
Format                      : AAC LC
Format/Info                 : Advanced Audio Codec Low Complexity
Codec ID                    : A_AAC-2
Duration                    : 1 h 23 min
Bit rate                    : 76.0 kb/s
Channel(s)                  : 2 channels
Channel layout              : L R
Sampling rate               : 48.0 kHz
Frame rate                  : 46.875 FPS (1024 SPF)
Compression mode            : Lossy
Delay relative to video     : 9 ms
Stream size                 : 45.4 MiB (6%)
Language                    : Russian
Default                     : Yes
Forced                      : No



Скриншоты:
[+] Всего файлов в раздаче - 1:
Поезд дальше не идет.mkv736.88 MB

Показать еще раздачи по запросу поезд:
2018-05-16 U Поезд на Париж / The 15:17 to Paris (2018) BDRip-AVC от HELLYWOOD | Лицензия 2.17 GB ↑ 60 ↓ 32
2018-05-16 U Поезд на Париж / The 15:17 to Paris (2018) HDRip от MegaPeer | Лицензия 746.22 MB ↑ 72 ↓ 16
2018-05-16 U Поезд на Париж / The 15:17 to Paris (2018) BDRemux 1080p от ExKinoRay | Лицензия 18.05 GB ↑ 34 ↓ 27
2018-05-15 U Поезд на Париж / The 15:17 to Paris (2018) BDRip-AVC от ExKinoRay | Лицензия 1.45 GB ↑ 90 ↓ 18
2018-05-15 U Поезд на Париж / The 15:17 to Paris (2018) BDRip 720p от ExKinoRay | Лицензия 3.42 GB ↑ 105 ↓ 51
2018-05-15 U Поезд на Париж / The 15:17 to Paris (2018) BDRip 1080p от ExKinoRay | Лицензия 7.20 GB ↑ 106 ↓ 65
2018-05-15 U Поезд на Париж / The 15:17 to Paris (2018) BDRip от MegaPeer | Лицензия 1.46 GB ↑ 127 ↓ 75

Отзывы
Зарегистрируйтесь чтобы добавить комментарий.
Обратная связь
Copyleft ©