↑↓Torrent.by
Поиск
Логин: Регистрация
Пароль: Восстановить пароль
Загрузка...

Капитан Марвел / Captain Marvel (2019) BDRip-HEVC 1080p от HANNIBAL | iTunes

Скачать kapitan-marvel-captain-2019-bdrip-hevc-1080p-ot-hannibal-itunes.torrent
U Магнитная ссылка Размер: 6.30 GB Раздают: 169 Качают: 28 Добавлен: 2019-06-05 05:36:38
Капитан Марвел / Captain Marvel (2019) BDRip-HEVC 1080p от HANNIBAL | iTunes

Название: Капитан Марвел
Оригинальное название: Captain Marvel
Год выхода: 2019
Жанр: Фантастика, боевик, приключения
Режиссер: Анна Боден, Райан Флек
В ролях: Бри Ларсон, Сэмюэл Л. Джексон, Бен Мендельсон, Джуд Лоу, Аннетт Бенинг, Лашана Линч, Кларк Грегг, Рюн Темт, Джемма Чан, Альхенис Перес Сото, Джимон Хонсу, Ли Пейс, Чуку Моду, Мэттью Мехер, Акира Акбар, Марк Догерти, Стивен А. Чанг

О фильме:
После столкновения с враждующими инопланетными расами пилот военно-воздушных сил Кэрол Дэнверс обретает суперсилу и становится неуязвимой. Героине предстоит совладать со своими новыми способностями, чтобы противостоять могущественному врагу.

Страна: США
Студия: Walt Disney Pictures, Marvel Studios
Продолжительность: 02:03:42
Перевод: Дублированный (iTunes)

Файл
Качество: BDRip-HEVC 1080p
Видео: HEVC/x.265, 1920x804, ~6263 Kbps
Аудио 1: AC3, 6 ch, 384 Kbps  Дублированный (iTunes)
Аудио 2: AC3, 6 ch, 640 Kbps  (Оригинал)
Субтитры: Русские(Forced, Full), Английские

Релиз:
[+] Mediainfo
General
Unique ID                   : 254540062325709784230809853956443000927 (0xBF7EA1FFB34A7623D16B56690C92D05F)
Complete name               : E:Captain Marvel (2019) BDRip 1080p [HEVC] 10bit.mkv
Format                      : Matroska
Format version              : Version 4
File size                   : 6.30 GiB
Duration                    : 2 h 3 min
Overall bit rate            : 7 289 kb/s
Movie name                  : Капитан Марвел
Encoded date                : UTC 2019-06-04 13:11:19
Writing application         : mkvmerge v25.0.0 ('Prog Noir') 64-bit
Writing library             : libebml v1.3.6 + libmatroska v1.4.9 / Lavf57.71.100
Attachments                 : poster.jpg
ACTORS                      : Бри Ларсон, Сэмюэл Л. Джексон,
COUNTRY                     : США
DATE                        : 2019
DIRECTOR                    : Анна Боден
ENCODING_INFO               : MATROSKA,WEBM > MKV / H264 > X265 CRF 17.5 Пользовательский 2
GENRE                       : фантастика, боевик, приключения
HD_VIDEO                    : 1
Language                    : und
MEDIA_TYPE                  : 9
ORIGINAL_TITLE              : Captain Marvel

Video
ID                          : 1
Format                      : HEVC
Format/Info                 : High Efficiency Video Coding
Format profile              : Main 10@L4.1@High
Codec ID                    : V_MPEGH/ISO/HEVC
Duration                    : 2 h 3 min
Bit rate                    : 6 263 kb/s
Width                       : 1 920 pixels
Height                      : 804 pixels
Display aspect ratio        : 2.40:1
Frame rate mode             : Constant
Frame rate                  : 23.976 (24000/1001) FPS
Color space                 : YUV
Chroma subsampling          : 4:2:0
Bit depth                   : 10 bits
Bits/(Pixel*Frame)          : 0.169
Stream size                 : 5.41 GiB (86%)
Writing library             : x265 2.9+9-f74003e88622:[Windows][GCC 8.2.0][64 bit] 10bit
Encoding settings           : cpuid=1111039 / frame-threads=13 / numa-pools=12 / wpp / no-pmode / no-pme / no-psnr / no-ssim / log-level=3 / input-csp=1 / input-res=1920x804 / interlace=0 / total-frames=0 / level-idc=41 / high-tier=1 / uhd-bd=0 / ref=5 / allow-non-conformance / no-repeat-headers / annexb / no-aud / no-hrd / info / hash=0 / no-temporal-layers / open-gop / min-keyint=23 / keyint=240 / gop-lookahead=0 / bframes=8 / b-adapt=2 / b-pyramid / bframe-bias=0 / rc-lookahead=60 / lookahead-slices=4 / scenecut=40 / radl=0 / no-intra-refresh / ctu=64 / min-cu-size=8 / rect / amp / max-tu-size=32 / tu-inter-depth=4 / tu-intra-depth=4 / limit-tu=0 / rdoq-level=2 / dynamic-rd=0.00 / no-ssim-rd / signhide / no-tskip / nr-intra=0 / nr-inter=0 / no-constrained-intra / no-strong-intra-smoothing / max-merge=5 / limit-refs=2 / limit-modes / me=3 / subme=7 / merange=57 / temporal-mvp / weightp / weightb / no-analyze-src-pics / deblock=-3:-3 / no-sao / no-sao-non-deblock / rd=6 / no-early-skip / rskip / no-fast-intra / no-tskip-fast / no-cu-lossless / b-intra / no-splitrd-skip / rdpenalty=0 / psy-rd=2.00 / psy-rdoq=1.00 / no-rd-refine / no-lossless / cbqpoffs=0 / crqpoffs=0 / rc=crf / crf=17.5 / qcomp=0.70 / qpstep=4 / stats-write=0 / stats-read=0 / vbv-maxrate=50000 / vbv-bufsize=50000 / vbv-init=0.9 / crf-max=0.0 / crf-min=0.0 / ipratio=1.40 / pbratio=1.30 / aq-mode=2 / aq-strength=1.00 / no-cutree / zone-count=0 / no-strict-cbr / qg-size=32 / no-rc-grain / qpmax=69 / qpmin=0 / no-const-vbv / sar=1 / overscan=0 / videoformat=5 / range=0 / colorprim=1 / transfer=1 / colormatrix=1 / chromaloc=0 / display-window=0 / max-cll=0,0 / min-luma=0 / max-luma=1023 / log2-max-poc-lsb=8 / vui-timing-info / vui-hrd-info / slices=1 / no-opt-qp-pps / no-opt-ref-list-length-pps / no-multi-pass-opt-rps / scenecut-bias=0.05 / no-opt-cu-delta-qp / aq-motion / no-hdr / no-hdr-opt / no-dhdr10-opt / no-idr-recovery-sei / analysis-reuse-level=5 / scale-factor=0 / refine-intra=0 / refine-inter=0 / refine-mv=0 / no-limit-sao / ctu-info=0 / no-lowpass-dct / refine-mv-type=0 / copy-pic=1 / max-ausize-factor=1.0 / no-dynamic-refine / no-single-sei
Language                    : English
Default                     : Yes
Forced                      : No
Color range                 : Limited
Color primaries             : BT.709
Transfer characteristics    : BT.709
Matrix coefficients         : BT.709

Audio #1
ID                          : 2
Format                      : AC-3
Format/Info                 : Audio Coding 3
Commercial name             : Dolby Digital
Codec ID                    : A_AC3
Duration                    : 2 h 3 min
Bit rate mode               : Constant
Bit rate                    : 384 kb/s
Channel(s)                  : 6 channels
Channel layout              : L R C LFE Ls Rs
Sampling rate               : 48.0 kHz
Frame rate                  : 31.250 FPS (1536 SPF)
Bit depth                   : 16 bits
Compression mode            : Lossy
Stream size                 : 340 MiB (5%)
Title                       : iTunes
Language                    : Russian
Service kind                : Complete Main
Default                     : Yes
Forced                      : Yes

Audio #2
ID                          : 3
Format                      : AC-3
Format/Info                 : Audio Coding 3
Commercial name             : Dolby Digital
Codec ID                    : A_AC3
Duration                    : 2 h 3 min
Bit rate mode               : Constant
Bit rate                    : 640 kb/s
Channel(s)                  : 6 channels
Channel layout              : L R C LFE Ls Rs
Sampling rate               : 48.0 kHz
Frame rate                  : 31.250 FPS (1536 SPF)
Bit depth                   : 16 bits
Compression mode            : Lossy
Stream size                 : 566 MiB (9%)
Title                       : eng
Service kind                : Complete Main
Default                     : No
Forced                      : No

Text #1
ID                          : 4
Format                      : UTF-8
Codec ID                    : S_TEXT/UTF8
Codec ID/Info               : UTF-8 Plain Text
Duration                    : 1 h 55 min
Bit rate                    : 1 b/s
Count of elements           : 17
Stream size                 : 937 Bytes (0%)
Title                       : Forced
Language                    : Russian
Default                     : Yes
Forced                      : Yes

Text #2
ID                          : 5
Format                      : UTF-8
Codec ID                    : S_TEXT/UTF8
Codec ID/Info               : UTF-8 Plain Text
Duration                    : 2 h 2 min
Bit rate                    : 65 b/s
Count of elements           : 1314
Stream size                 : 58.8 KiB (0%)
Title                       : Full
Language                    : Russian
Default                     : No
Forced                      : No

Text #3
ID                          : 6
Format                      : UTF-8
Codec ID                    : S_TEXT/UTF8
Codec ID/Info               : UTF-8 Plain Text
Duration                    : 1 h 53 min
Bit rate                    : 47 b/s
Count of elements           : 1422
Stream size                 : 39.6 KiB (0%)
Title                       : Full
Language                    : English
Default                     : No
Forced                      : No

Menu
00:00:00.000                : :Глава 01
00:06:52.120                : :Глава 02
00:14:07.889                : :Глава 03
00:23:18.272                : :Глава 04
00:29:38.026                : :Глава 05
00:35:07.772                : :Глава 06
00:44:08.437                : :Глава 07
00:50:43.499                : :Глава 08
00:56:18.625                : :Глава 09
01:03:02.821                : :Глава 10
01:11:17.398                : :Глава 11
01:17:49.164                : :Глава 12
01:27:03.051                : :Глава 13
01:33:22.430                : :Глава 14
01:40:51.796                : :Глава 15
01:46:25.087                : :Глава 16
01:52:49.888                : :Глава 17



Скриншоты:
[+] Всего файлов в раздаче - 1:
Captain Marvel (2019) BDRip 1080p [HEVC] 10bit.mkv6.30 GB

Показать еще раздачи по запросу капитан:
2019-07-06 U Капитан Марвел / Captain Marvel (2019) HDRip от Scarabey | Лицензия 1.45 GB ↑ 546 ↓ 12
2019-07-05 U Капитан Марвел / Captain Marvel (2019) BDRip-HEVC 1080p от HANNIBAL | Лицензия 6.52 GB ↑ 64 ↓ 15
2019-07-05 U Капитан Марвел / Captain Marvel (2019) BDRip-HEVC 720p | Лицензия 2.31 GB ↑ 45 ↓ 12
2019-07-05 U Капитан Марвел / Captain Marvel (2019) HDRip от Scarabey | Лицензия 749.76 MB ↑ 28 ↓ 7
2019-07-04 U Капитан Марвел / Captain Marvel (2019) BDRip 1080p от qqss44 & MegaPeer | Лицензия 7.75 GB ↑ 158 ↓ 133
2019-07-04 U Капитан Марвел / Captain Marvel (2019) BDRip 720p от HELLYWOOD | Лицензия 5.76 GB ↑ 29 ↓ 26
2019-07-04 U Капитан Марвел / Captain Marvel (2019) BDRip 1080p от селезень | Лицензия 11.79 GB ↑ 69 ↓ 52

Отзывы
Зарегистрируйтесь чтобы добавить комментарий.
Обратная связь
Copyleft ©