↑↓Torrent.by
Поиск
Логин: Регистрация
Пароль: Восстановить пароль
Загрузка...

Чёрное зеркало / Black Mirror [S05] (2019) WEB-DL 1080p | Пифагор

Скачать chernoe-zerkalo-black-mirror-s05-2019-web-dl-1080p-pifagor.torrent
U Магнитная ссылка Размер: 8.48 GB Раздают: 909 Качают: 645 Добавлен: 2019-06-05 19:06:25
Чёрное зеркало / Black Mirror [S05] (2019) WEB-DL 1080p | Пифагор

Чёрное зеркало / Black Mirror

Страна: Великобритания
Производство: Channel 4 Television Corporation, Gran Babieka, Zeppotron
Год выпуска: 2019
Жанр:  фантастика, триллер, драма
Продолжительность: 3х ~01:01:00

Режиссер: Джеймс Хоуз
Автор сценария: Чарли Брукер
В ролях: Эндрю Скотт, Демсон Идрис, Тофер Грейс, Майли Сайрус, Энгаури Райс, Мэдисон Девенпорт, Энтони Маки, Яхья Абдул-Матин II, Николь Бахари

Описание: За последние десять лет технологии всесторонне изменили нашу жизнь, прежде чем мы успели опомниться и усомниться в них. В каждом доме, на каждом столе, на каждой ладони — плазменный телевизор, монитор компьютера, дисплей смартфона — черное зеркало нашего существования в двадцать первом веке. Наша связь с реальностью меняется. Мы возложили на алтарь Google и Apple и поклоняемся им. Facebook-алгоритмы знают о нас больше, чем наши собственные родители. У нас есть доступ ко всей информации в мире, но в голове хватает места лишь для того, чтобы воспринять 140 символов из сообщения в Twitter. В «Чёрном зеркале» отображается всеобщее беспокойство за наш современный мир...

Перевод: Профессиональный (полное дублирование) | Пифагор
Субтитры: русские (forced + full), английские

Качество: WEB-DL 1080p
Формат: МКV
Видео кодек: AVC
Аудио кодек: E-AC-3
Видео: 1920x1080 (16:9), 25.000 fps, MPEG-4 AVC ~6 810 kbps avg
Аудио №1: 48.0 kHz, Enhanced Audio Coding 3, 3/2 (L,C,R,l,r) + LFE ch, ~640 kbps | RUS
Аудио №2: 48.0 kHz, Enhanced Audio Coding 3, 3/2 (L,C,R,l,r) + LFE ch, ~640 kbps | ENG
Формат субтитров: UTF-8 Plain Text

Дата премьеры (мир): 5 июня 2019


[+] Дополнительная информация
Релиз от:




[+] Media Info
General
Unique ID                      : 291746253126567570970884281506647664047 (0xDB7C48D56154D42E786603C1555665AF)
Complete name                  : Black.Mirror.S05E01.Striking.Vipers.1080p.NF.WEB-DL.DDP5.1.x264-EniaHD.mkv
Format                         : Matroska
Format version                 : Version 4 / Version 2
File size                      : 3.43 GiB
Duration                       : 1 h 1 min
Overall bit rate mode          : Variable
Overall bit rate               : 7 938 kb/s
Movie name                     : Black Mirror 05x01 (Striking Vipers) - EniaHD
Encoded date                   : UTC 2019-06-05 07:50:02
Writing application            : mkvmerge v34.0.0 ('Sight and Seen') 64-bit
Writing library                : libebml v1.3.7 + libmatroska v1.5.0

Video
ID                             : 1
Format                         : AVC
Format/Info                    : Advanced Video Codec
Format profile                 : Main@L4
Format settings                : CABAC / 3 Ref Frames
Format settings, CABAC         : Yes
Format settings, ReFrames      : 3 frames
Codec ID                       : V_MPEG4/ISO/AVC
Duration                       : 1 h 1 min
Bit rate mode                  : Variable
Bit rate                       : 6 810 kb/s
Maximum bit rate               : 10.2 Mb/s
Width                          : 1 920 pixels
Height                         : 1 080 pixels
Display aspect ratio           : 16:9
Frame rate mode                : Constant
Frame rate                     : 25.000 FPS
Color space                    : YUV
Chroma subsampling             : 4:2:0
Bit depth                      : 8 bits
Scan type                      : Progressive
Bits/(Pixel*Frame)             : 0.131
Stream size                    : 2.88 GiB (84%)
Writing library                : x264 core 148 r2715 7e75228
Encoding settings              : cabac=1 / ref=3 / deblock=1:0:0 / analyse=0x1:0x111 / me=umh / subme=10 / psy=1 / psy_rd=1.00:0.00 / mixed_ref=1 / me_range=24 / chroma_me=1 / trellis=2 / 8x8dct=0 / cqm=0 / deadzone=21,11 / fast_pskip=1 / chroma_qp_offset=-2 / threads=8 / lookahead_threads=1 / sliced_threads=0 / nr=0 / decimate=1 / interlaced=0 / bluray_compat=0 / stitchable=1 / constrained_intra=0 / bframes=2 / b_pyramid=0 / b_adapt=2 / b_bias=0 / direct=3 / weightb=1 / open_gop=0 / weightp=2 / keyint=50 / keyint_min=26 / scenecut=0 / intra_refresh=0 / rc_lookahead=50 / rc=2pass / mbtree=1 / bitrate=6810 / ratetol=1.0 / qcomp=0.50 / qpmin=6 / qpmax=51 / qpstep=4 / cplxblur=20.0 / qblur=0.5 / vbv_maxrate=10215 / vbv_bufsize=13620 / nal_hrd=vbr / filler=0 / ip_ratio=1.40 / aq=1:1.00
Default                        : Yes
Forced                         : No

Audio #1
ID                             : 2
Format                         : E-AC-3
Format/Info                    : Enhanced Audio Coding 3
Codec ID                       : A_EAC3
Duration                       : 1 h 1 min
Bit rate mode                  : Constant
Bit rate                       : 640 kb/s
Channel(s)                     : 6 channels
Channel positions              : Front: L C R, Side: L R, LFE
Sampling rate                  : 48.0 kHz
Frame rate                     : 187.500 FPS (256 SPF)
Compression mode               : Lossy
Stream size                    : 283 MiB (8%)
Language                       : Russian
Service kind                   : Complete Main
Default                        : Yes
Forced                         : No

Audio #2
ID                             : 3
Format                         : E-AC-3
Format/Info                    : Enhanced Audio Coding 3
Codec ID                       : A_EAC3
Duration                       : 1 h 1 min
Bit rate mode                  : Constant
Bit rate                       : 640 kb/s
Channel(s)                     : 6 channels
Channel positions              : Front: L C R, Side: L R, LFE
Sampling rate                  : 48.0 kHz
Frame rate                     : 187.500 FPS (256 SPF)
Compression mode               : Lossy
Stream size                    : 283 MiB (8%)
Language                       : English
Service kind                   : Complete Main
Default                        : No
Forced                         : No

Text #1
ID                             : 4
Format                         : UTF-8
Codec ID                       : S_TEXT/UTF8
Codec ID/Info                  : UTF-8 Plain Text
Duration                       : 1 h 1 min
Bit rate                       : 2 b/s
Count of elements              : 35
Stream size                    : 1.32 KiB (0%)
Title                          : Forced
Language                       : Russian
Default                        : Yes
Forced                         : Yes

Text #2
ID                             : 5
Format                         : UTF-8
Codec ID                       : S_TEXT/UTF8
Codec ID/Info                  : UTF-8 Plain Text
Duration                       : 1 h 1 min
Bit rate                       : 60 b/s
Count of elements              : 712
Stream size                    : 27.0 KiB (0%)
Title                          : Full
Language                       : Russian
Default                        : No
Forced                         : No

Text #3
ID                             : 6
Format                         : UTF-8
Codec ID                       : S_TEXT/UTF8
Codec ID/Info                  : UTF-8 Plain Text
Duration                       : 1 h 0 min
Bit rate                       : 44 b/s
Count of elements              : 743
Stream size                    : 20.0 KiB (0%)
Language                       : English
Default                        : No
Forced                         : No



Скриншоты:
[+] Всего файлов в раздаче - 3:
Black.Mirror.S05E01.Striking.Vipers.1080p.NF.WEB-DL.DDP5.1.x264-EniaHD.mkv3.43 GB
Black.Mirror.S05E02.Smithereens.1080p.NF.WEB-DL.DDP5.1.x264-EniaHD.mkv2.76 GB
Black.Mirror.S05E03.Rachel.Jack.and.Ashley.Too.1080p.NF.WEB-DL.DDP5.1.x264-EniaHD.mkv2.29 GB

Отзывы
Зарегистрируйтесь чтобы добавить комментарий.
Обратная связь
Copyleft ©