↑↓Torrent.by
Поиск
Логин: Регистрация
Пароль: Восстановить пароль
Загрузка...

Однажды в Стокгольме / Stockholm (2018) WEB-DL 1080p от селезень | HDRezka Studio

Скачать odnazhdy-v-stokgolme-stockholm-2018-web-dl-1080p-ot-selezen-hdrezka-studio.torrent
U Магнитная ссылка Размер: 5.83 GB Раздают: 308 Качают: 230 Добавлен: 2019-06-05 19:06:52
Однажды в Стокгольме / Stockholm (2018) WEB-DL 1080p от селезень | HDRezka Studio

Название: Однажды в Стокгольме
Оригинальное название: Stockholm
Год выхода: 2018
Жанр: Драма, комедия, криминал
Режиссер: Роберт Будро
В ролях: Марк Стронг, Нуми Рапас, Итэн Хоук, Кристофер Хейердал, Би Сантос, Торбьорн Харр, Шанти Рони, Марк Рендалл, Ханнеке Тэлбот, Джон Ралстон

О фильме: История термина «стокгольмский синдром», возникшего после захвата шведского банка в 1973 году. Шесть дней вооруженный грабитель Ян-Эрик Олссон продержал в заложниках четырех сотрудников банка, которые впоследствии встали на его защиту.

Страна: Канада, США
Студия: Darius Films, Lumanity Productions, JoBro Productions & Film Finance
Продолжительность: 01:31:56
Перевод: Профессиональный многоголосый | HDRezka Studio

Качество: WEB-DL 1080p
Видео: MPEG-4 AVC, 1920x800, 8244 Kbit/s, 23.976 fps
Звук:
Аудио #01: 48 kHz, AC3, 2.0, 192 Kbps | Профессиональный многоголосый | RUS |
Аудио #02: 48 kHz, E-AC3, 5.1, 640 Kbps | Оригинал |  ENG |
Субтитры: Английские

Релиз:


[+] MI
General
Unique ID                   : 197696819860773753125520943628983682301 (0x94BB05C4651C66888B01C142470744FD)
Complete name               : D:Video111Stockholm.2018.WEB-DL.1080p.seleZen.mkv
Format                      : Matroska
Format version              : Version 4
File size                   : 5.83 GiB
Duration                    : 1 h 31 min
Overall bit rate            : 9 079 kb/s
Movie name                  : Stockholm 2018 from селезень
Encoded date                : UTC 2019-06-05 09:33:46
Writing application         : mkvmerge v33.1.0 ('Primrose') 64-bit
Writing library             : libebml v1.3.7 + libmatroska v1.5.0

Video
ID                          : 1
Format                      : AVC
Format/Info                 : Advanced Video Codec
Format profile              : High@L4
Format settings             : CABAC / 4 Ref Frames
Format settings, CABAC      : Yes
Format settings, Reference  : 4 frames
Codec ID                    : V_MPEG4/ISO/AVC
Duration                    : 1 h 31 min
Bit rate mode               : Constant
Bit rate                    : 8 244 kb/s
Nominal bit rate            : 10 000 kb/s
Width                       : 1 920 pixels
Height                      : 800 pixels
Display aspect ratio        : 2.40:1
Frame rate mode             : Constant
Frame rate                  : 23.976 (24000/1001) FPS
Color space                 : YUV
Chroma subsampling          : 4:2:0
Bit depth                   : 8 bits
Scan type                   : Progressive
Bits/(Pixel*Frame)          : 0.224
Stream size                 : 5.29 GiB (91%)
Language                    : English
Default                     : Yes
Forced                      : No
Color range                 : Limited
Color primaries             : BT.709
Transfer characteristics    : BT.709
Matrix coefficients         : BT.709

Audio #1
ID                          : 2
Format                      : AC-3
Format/Info                 : Audio Coding 3
Commercial name             : Dolby Digital
Codec ID                    : A_AC3
Duration                    : 1 h 31 min
Bit rate mode               : Constant
Bit rate                    : 192 kb/s
Channel(s)                  : 2 channels
Channel layout              : L R
Sampling rate               : 48.0 kHz
Frame rate                  : 31.250 FPS (1536 SPF)
Bit depth                   : 16 bits
Compression mode            : Lossy
Stream size                 : 126 MiB (2%)
Title                       : MVO [HDRezka Studio]
Language                    : Russian
Service kind                : Complete Main
Default                     : Yes
Forced                      : Yes

Audio #2
ID                          : 3
Format                      : E-AC-3
Format/Info                 : Enhanced AC-3
Commercial name             : Dolby Digital Plus
Codec ID                    : A_EAC3
Duration                    : 1 h 31 min
Bit rate mode               : Constant
Bit rate                    : 640 kb/s
Channel(s)                  : 6 channels
Channel layout              : L R C LFE Ls Rs
Sampling rate               : 48.0 kHz
Frame rate                  : 31.250 FPS (1536 SPF)
Compression mode            : Lossy
Stream size                 : 421 MiB (7%)
Title                       : Original
Language                    : English
Service kind                : Complete Main
Default                     : No
Forced                      : No

Text
ID                          : 4
Format                      : UTF-8
Codec ID                    : S_TEXT/UTF8
Codec ID/Info               : UTF-8 Plain Text
Duration                    : 1 h 28 min
Bit rate                    : 83 b/s
Count of elements           : 1964
Stream size                 : 53.9 KiB (0%)
Title                       : SDH
Language                    : English
Default                     : No
Forced                      : No

Menu
00:00:00.000                : en:Studio Logo
00:00:38.000                : en:Stockholm syndrome -  a new disorder
00:01:17.000                : en:Kaj is preparing for the day
00:03:42.000                : en:Shock and fear rock the floor
00:05:35.000                : en:Jackobsson brings unpleasant news
00:07:32.000                : en:Vinter tries to overcome the situation
00:09:52.000                : en:Kaj lay's his cards on the table
00:12:54.000                : en:Bianca is calm and courageous
00:16:33.000                : en:Gunnar arrives at the bank
00:21:34.000                : en:Someone wants to meet Bianca
00:25:26.000                : en:Kaj calls to threaten Olof
00:29:05.000                : en:Mattsson shares the information with press
00:32:45.000                : en:Bianca wants to go home
00:38:36.000                : en:It's an emergency call
00:40:36.000                : en:Hostages are disappointed with government
00:44:25.000                : en:No one knows Kaj's plan
00:47:10.000                : en:Insanity can't be stopped
00:49:46.000                : en:Police are trying to solve the crisis
00:54:13.000                : en:Hostages need food and medicine
00:57:08.000                : en:Mattsson is not ready to give up
01:01:42.000                : en:Another attempt to save the hostages
01:06:23.000                : en:Lars and Gunnar are not on the same page
01:10:49.000                : en:Bianca is helping the criminals
01:14:27.000                : en:Elov & Binaca have future plans
01:18:00.000                : en:Lars is laughing wholeheartedly
01:21:52.000                : en:Everyone is in pain
01:24:04.000                : en:Everyone is enjoying the sunshine
01:24:38.000                : en:Lars gets a visitor in prison
01:26:51.000                : en:Title Sequence
01:27:03.000                : en:End Credits



Скриншоты:
[+] Всего файлов в раздаче - 1:
Stockholm.2018.WEB-DL.1080p.seleZen.mkv5.83 GB

Показать еще раздачи по запросу однажды:
2019-06-09 U Однажды в Стокгольме / Stockholm (2018) WEB-DLRip от Scarabey | HDRezka Studio 1.49 GB ↑ 26 ↓ 6
2019-06-07 U Однажды в Стокгольме / Stockholm (2018) WEB-DLRip от Portablius | HDRezka Studio 741.07 MB ↑ 46 ↓ 11
2019-06-05 U Однажды в Стокгольме / Stockholm (2018) WEB-DLRip от MegaPeer | HDRezka Studio 1.45 GB ↑ 259 ↓ 143
2019-05-21 U Однажды в Лондоне / Once Upon a Time in London (2019) WEB-DLRip от Portablius | HDRezka Studio 746.50 MB ↑ 26 ↓ 6
2019-05-19 U Однажды в России [06х01-06] (2019) WEBRip 720p от Files-x 6.08 GB ↑ 70 ↓ 301
2019-05-18 U Однажды в Лондоне / Once Upon a Time in London (2019) WEB-DLRip от Scarabey | HDRezka Studio 1.45 GB ↑ 147 ↓ 23
2019-05-17 U Однажды в Лондоне / Once Upon a Time in London (2019) WEB-DLRip | КПК | HDrezka Studio 465.01 MB ↑ 32 ↓ 6

Отзывы
Зарегистрируйтесь чтобы добавить комментарий.
Обратная связь
Copyleft ©