↑↓Torrent.by
Поиск
Логин: Регистрация
Пароль: Восстановить пароль
Загрузка...

СашаТаня [08x01-09] (2019) WEBRip от GeneralFilm

Скачать sashatanya-08x01-09-2019-webrip-ot-generalfilm.torrent
U Магнитная ссылка Размер: 2.45 GB Раздают: 71 Качают: 192 Добавлен: 2019-06-05 19:07:40
СашаТаня [08x01-09] (2019) WEBRip от GeneralFilm

Год выпуска: 2019
Жанр:  Комедия
Выпущено: Россия, «Comedy Club Production»
Режиссер: Михаил Старчак, Андрей Богатырёв, Александр Потапов
В ролях: Андрей Гайдулян, Валентина Рубцова, Алексей Климушкин, Елена Бирюкова, Татьяна Орлова, Андрей Лебедев, Ксения Хаирова, Олег Новиков (IV), Сергей Рудзевич, Сергей Мурзин, Андрей Свиридов, Павел Кассинский, Виталий Гогунский, Арарат Кещян, Ёлка, Алексей Гаврилов, Лариса Баранова, Алина Кизиярова-Ланина, Екатерина Шукшина, Владимир Епифанцев, Светлана Тимофеева-Летуновская

О фильме: Сериал про молодую семью Сергеевых. После окончания института Саша и Таня вместе со своим маленьким сыном Алёшкой решили пожить самостоятельно и сняли квартиру в Южном Бутово. Райончик конечно не из лучших, но зато и цены на жилье тут доступные, ведь Саша не собирается пользоваться миллиардами своего папы. Но Сильвестр Андреевич не собирается так просто отставать от молодых и тем более от своего внука. Поэтому он поселился по соседству, только в просторной и роскошной квартире.

Качество: WEBRip
Видео: XviD build 73, 720x400 (16:9), 25.000 fps, ~ 1550 Kbps (~ 0.215 bit/pixel)
Аудио: 48.0 kHz, AC3, 2/0 ch, 192 kbps
Продолжительность: 9 х ~ 00:25:00
Перевод: Не требуется [Русский]
Cубтитры: нет

Релиз:
[+] MediaInfo
General
Complete name               : D:RazdachiSashaTanja.s08.2019.WEBRip.GeneralFilmSashaTanja.s08.e01.avi
Format                      : AVI
Format/Info                 : Audio Video Interleave
File size                   : 279 MiB
Duration                    : 21 min 54 s
Overall bit rate            : 1 780 kb/s
Writing application         : VirtualDubMod 1.5.10.3 | www.virtualdub-fr.org || (build 2550/release)
Writing library             : VirtualDubMod build 2550/release

Video
ID                          : 0
Format                      : MPEG-4 Visual
Format profile              : Advanced Simple@L5
Format settings             : BVOP1 / Custom Matrix
Format settings, BVOP       : 1
Format settings, QPel       : No
Format settings, GMC        : No warppoints
Format settings, Matrix     : Custom
Codec ID                    : XVID
Codec ID/Hint               : XviD
Duration                    : 21 min 54 s
Bit rate                    : 1 578 kb/s
Width                       : 720 pixels
Height                      : 400 pixels
Display aspect ratio        : 16:9
Frame rate                  : 25.000 FPS
Color space                 : YUV
Chroma subsampling          : 4:2:0
Bit depth                   : 8 bits
Scan type                   : Progressive
Compression mode            : Lossy
Bits/(Pixel*Frame)          : 0.219
Stream size                 : 247 MiB (89%)
Writing library             : XviD 73

Audio
ID                          : 1
Format                      : AC-3
Format/Info                 : Audio Coding 3
Commercial name             : Dolby Digital
Codec ID                    : 2000
Duration                    : 21 min 54 s
Bit rate mode               : Constant
Bit rate                    : 192 kb/s
Channel(s)                  : 2 channels
Channel layout              : L R
Sampling rate               : 48.0 kHz
Frame rate                  : 31.250 FPS (1536 SPF)
Bit depth                   : 16 bits
Compression mode            : Lossy
Stream size                 : 30.1 MiB (11%)
Alignment                   : Split accross interleaves
Interleave, duration        : 40  ms (1.00 video frame)
Interleave, preload duratio : 500  ms
Service kind                : Complete Main



Скриншоты:
[+] Всего файлов в раздаче - 9:
SashaTanja.s08.e01.avi278.77 MB
SashaTanja.s08.e02.avi278.87 MB
SashaTanja.s08.e03.avi278.77 MB
SashaTanja.s08.e04.avi279.06 MB
SashaTanja.s08.e05.avi278.92 MB
SashaTanja.s08.e06.avi278.99 MB
SashaTanja.s08.e07.avi278.81 MB
SashaTanja.s08.e08.avi278.93 MB
SashaTanja.s08.e09.avi278.90 MB

Показать еще раздачи по запросу сашатаня:
2019-06-19 U СашаТаня [08x01-16] (2019) WEBRip-AVC от Files-x 4.56 GB ↑ 23 ↓ 46
2019-06-18 U СашаТаня [08x01-16] (2019) WEBRip 720p от ExKinoRay 7.08 GB ↑ 40 ↓ 175
2019-06-17 U СашаТаня [08x01-15] (2019) WEBRip 720p от ExKinoRay 6.64 GB ↑ 41 ↓ 216
2019-06-13 U СашаТаня [08x01-14] (2019) WEBRip 4.11 GB ↑ 18 ↓ 133
2019-06-13 U СашаТаня [08x01-14] (2019) WEBRip 720p от ExKinoRay 6.19 GB ↑ 11 ↓ 61
2019-06-12 U СашаТаня [08x01-13] (2019) WEBRip 3.81 GB ↑ 54 ↓ 219
2019-06-11 U СашаТаня [08x01-12] (2019) WEBRip 3.52 GB ↑ 45 ↓ 109

Отзывы
Зарегистрируйтесь чтобы добавить комментарий.
Обратная связь
Copyleft ©