↑↓Torrent.by
Поиск
Логин: Регистрация
Пароль: Восстановить пароль
Загрузка...

Капитан Марвел / Captain Marvel (2019) BDRip 1080p от qqss44 & MegaPeer | iTunes

Скачать kapitan-marvel-captain-2019-bdrip-1080p-ot-qqss44-megapeer-itunes.torrent
U Магнитная ссылка Размер: 7.53 GB Раздают: 86 Качают: 43 Добавлен: 2019-06-06 08:41:02
Капитан Марвел / Captain Marvel (2019) BDRip 1080p от qqss44 & MegaPeer | iTunes

Анонсы 1080p от qqss44

Информация о фильме
Название: Капитан Марвел
Оригинальное название: Captain Marvel
Год выпуска: 2019
Жанр:  Фантастика, боевик, приключения
Режиссер: Анна Боден, Райан Флек
В ролях: Бри Ларсон, Сэмюэл Л. Джексон, Бен Мендельсон, Джуд Лоу, Аннетт Бенинг, Лашана Линч, Кларк Грегг, Рюн Темт, Джемма Чан, Альхенис Перес Сото, Джимон Хонсу, Ли Пейс, Чуку Моду, Мэттью Мехер, Акира Акбар, Марк Догерти, Стивен А. Чанг

О фильме:
После столкновения с враждующими инопланетными расами, пилот военно-воздушных сил Кэрол Дэнверс обретает суперсилу и становится неуязвимой. Героине предстоит совладать со своими новыми способностями, чтобы противостоять могущественному врагу.

Страна: США
Студия: Walt Disney Pictures, Marvel Studios
Продолжительность: 02:03:42
Перевод: Дублированный | iTunes

Файл
Формат: MKV, BDRip 1080p
Видео: MPEG-4 AVC, 7690 Кбит/с, 1920x804
Aудио#1: [RUS] AC3 | 48 KHz | 5.1 (Front: L С R Side: L R) + LFE | ~384 kbps
Aудио#2: [ENG] AC3 | 48 KHz | 5.1 (Front: L С R Side: L R) + LFE | ~640 kbps
Субтитры: русские форсированные + полные, английские полные
Релиз от:


[+] МИ


Общее
Уникальный идентификатор : 202221161777436173777306193190031398537 (0x9822610BC0E48F98B0BFBF3AA11B1689)
Полное имя : H:Captain.Marvel.(2019).BDRip-1080p.MegaPeer.(qqss44).mkv
Формат : Matroska
Версия формата : Version 2
Размер файла : 7,53 Гбайт
Продолжительность : 2 ч. 3 м.
Общий поток : 8715 Кбит/сек
Название фильма : Captain.Marvel.(2019).BDRip-1080p.MegaPeer.(qqss44)
Дата кодирования : UTC 2019-06-05 14:47:33
Программа кодирования : mkvmerge v7.8.0 ('River Man') 32bit built on Apr 3 2015 12:11:22
Библиотека кодирования : libebml v1.3.1 + libmatroska v1.4.2

Видео
Идентификатор : 1
Формат : AVC
Формат/Информация : Advanced Video Codec
Профиль формата : High@L4.1
Параметр CABAC формата : Да
Параметр ReFrames формата : 5 кадров
Идентификатор кодека : V_MPEG4/ISO/AVC
Продолжительность : 2 ч. 3 м.
Битрейт : 7690 Кбит/сек
Ширина : 1920 пикселей
Высота : 804 пикселя
Соотношение сторон : 2,40:1
Режим частоты кадров : Постоянный
Частота кадров : 23,976 (24000/1001) кадра/сек
Цветовое пространство : YUV
Субдискретизация насыщенности : 4:2:0
Битовая глубина : 8 бит
Тип развёртки : Прогрессивная
Бит/(Пиксели*Кадры) : 0.208
Размер потока : 6,50 Гбайт (86%)
Библиотека кодирования : x264 core 152 r2851 ba24899
Настройки программы : cabac=1 / ref=5 / deblock=1:-3:-3 / analyse=0x3:0x113 / me=umh / subme=11 / psy=1 / psy_rd=1.00:0.00 / mixed_ref=1 / me_range=32 / chroma_me=1 / trellis=2 / 8x8dct=1 / cqm=0 / deadzone=21,11 / fast_pskip=0 / chroma_qp_offset=-2 / threads=12 / lookahead_threads=2 / sliced_threads=0 / nr=0 / decimate=0 / interlaced=0 / bluray_compat=0 / constrained_intra=0 / bframes=9 / b_pyramid=2 / b_adapt=2 / b_bias=0 / direct=3 / weightb=1 / open_gop=0 / weightp=2 / keyint=250 / keyint_min=23 / scenecut=40 / intra_refresh=0 / rc_lookahead=40 / rc=2pass / mbtree=0 / bitrate=7690 / ratetol=1.0 / qcomp=0.70 / qpmin=0 / qpmax=69 / qpstep=4 / cplxblur=20.0 / qblur=0.5 / vbv_maxrate=50000 / vbv_bufsize=62500 / nal_hrd=none / filler=0 / ip_ratio=1.40 / pb_ratio=1.30 / aq=3:0.80
Язык : English
Default : Да
Forced : Нет

Аудио #1
Идентификатор : 2
Формат : AC-3
Формат/Информация : Audio Coding 3
Расширение режима : CM (complete main)
Параметр Endianness формата : Big
Идентификатор кодека : A_AC3
Продолжительность : 2 ч. 3 м.
Вид битрейта : Постоянный
Битрейт : 384 Кбит/сек
Каналы : 6 каналов
Расположение каналов : Front: L C R, Side: L R, LFE
Частота : 48,0 КГц
Частота кадров : 31,250 кадров/сек (1536 spf)
Метод сжатия : С потерями
Размер потока : 340 Мбайт (4%)
Язык : Russian
Default : Да
Forced : Нет

Аудио #2
Идентификатор : 3
Формат : AC-3
Формат/Информация : Audio Coding 3
Расширение режима : CM (complete main)
Параметр Endianness формата : Big
Идентификатор кодека : A_AC3
Продолжительность : 2 ч. 3 м.
Вид битрейта : Постоянный
Битрейт : 640 Кбит/сек
Каналы : 6 каналов
Расположение каналов : Front: L C R, Side: L R, LFE
Частота : 48,0 КГц
Частота кадров : 31,250 кадров/сек (1536 spf)
Метод сжатия : С потерями
Размер потока : 566 Мбайт (7%)
Язык : English
Default : Нет
Forced : Нет

Текст #1
Идентификатор : 4
Формат : UTF-8
Идентификатор кодека : S_TEXT/UTF8
Идентификатор кодека/Информация : UTF-8 Plain Text
Заголовок : FORCED
Язык : Russian
Default : Да
Forced : Нет

Текст #2
Идентификатор : 5
Формат : UTF-8
Идентификатор кодека : S_TEXT/UTF8
Идентификатор кодека/Информация : UTF-8 Plain Text
Заголовок : FULL
Язык : Russian
Default : Нет
Forced : Нет

Текст #3
Идентификатор : 6
Формат : UTF-8
Идентификатор кодека : S_TEXT/UTF8
Идентификатор кодека/Информация : UTF-8 Plain Text
Заголовок : FULL
Язык : English
Default : Нет
Forced : Нет

Меню
00:00:00.000 : en:00:00:00.000
00:06:52.120 : en:00:06:52.120
00:14:07.889 : en:00:14:07.889
00:23:18.272 : en:00:23:18.272
00:29:38.026 : en:00:29:38.026
00:35:07.772 : en:00:35:07.772
00:44:08.437 : en:00:44:08.437
00:50:43.499 : en:00:50:43.499
00:56:18.625 : en:00:56:18.625
01:03:02.821 : en:01:03:02.821
01:11:17.398 : en:01:11:17.398
01:17:49.164 : en:01:17:49.164
01:27:03.051 : en:01:27:03.051
01:33:22.430 : en:01:33:22.430
01:40:51.796 : en:01:40:51.796
01:46:25.087 : en:01:46:25.087
01:52:49.888 : en:01:52:49.888




Скриншоты:
[+] Всего файлов в раздаче - 1:
Captain.Marvel.(2019).BDRip-1080p.MegaPeer.(qqss44).mkv7.53 GB

Показать еще раздачи по запросу капитан:
2019-06-11 U Капитан Марвел / Captain Marvel (2019) BDRip-AVC от HELLYWOOD | iTunes 2.85 GB ↑ 70 ↓ 41
2019-06-07 U Капитан Марвел / Captain Marvel (2019) BDRip от Twister & ExKinoRay | iTunes 1.46 GB ↑ 78 ↓ 29
2019-06-07 U Капитан Марвел / Captain Marvel (2019) BDRip от Twister & ExKinoRay | iTunes 2.13 GB ↑ 116 ↓ 21
2019-06-06 U Капитан Марвел / Капітан Марвел / Captain Marvel (2019) BDRip 1080p | Line | UKR 8.91 GB ↑ 28 ↓ 8
2019-06-05 U Капитан Марвел / Captain Marvel (2019) BDRip-HEVC 1080p от HANNIBAL | iTunes 6.30 GB ↑ 104 ↓ 28
2019-06-03 U Капитан Марвел / Captain Marvel (2019) UHD BDRip 2160p от селезень | 4K | HDR | iTunes 20.76 GB ↑ 41 ↓ 77
2019-06-03 U Капитан Марвел / Captain Marvel (2019) BDRip-AVC | iTunes 1.46 GB ↑ 88 ↓ 45

Отзывы
Зарегистрируйтесь чтобы добавить комментарий.
Обратная связь
Copyleft ©