↑↓Torrent.by
Поиск
Логин: Регистрация
Пароль: Восстановить пароль
Загрузка...

Дочь Чингизхана в XXI веке (2018) DVB-AVC

Скачать doch-chingizhana-v-xxi-veke-2018-dvb-avc.torrent
U Магнитная ссылка Размер: 1.45 GB Раздают: 43 Качают: 18 Добавлен: 2019-06-06 08:41:53
Дочь Чингизхана в XXI веке (2018) DVB-AVC

Оригинальное название: Дочь Чингизхана в XXI веке
Год выхода: 2018
Жанр: комедия, приключения

Режиссер: Илхам Джалилов

В ролях: Алия Телебарисова, Акниет Орынтай, Яна Бобрыка, Ерден Телемисов, Вахид Изимов, Карина Бухарбаева и др.

О фильме:
Жизнь Дианы меняется, когда на ее пути появляется Жанна, дочь Чингисхана, которая случайно попадает в 21 век. И с того момента начинаются незабываемые приключения главных героинь, ведь Жанне нужно вернутся домой, а Диана желает получить корону «Мисс Инстаграм».

Страна: Казахстан
Продолжительность: 01:30:57
Язык: Русский

Файл
Формат видео: ts
Качество: DVB
Видео: 720x576@1047x576 (16:9), 25 fps, AVC, ~1979 kbps, 0.191 bit/pixel
Аудио: 48 kHz, MP2, 1 ch, 192 kbps

Реклама отсутствует.
[+] Трейлер
Трейлер



[+] MediaInfo
General
ID                             : 1 (0x1)
Complete name                  : E:Дочь Чингизхана в XXI веке (2018) [DVB].ts
Format                         : MPEG-TS
File size                      : 1.45 GiB
Duration                       : 1 h 30 min
Overall bit rate mode          : Variable
Overall bit rate               : 2 286 kb/s

Video
ID                             : 67 (0x43)
Menu ID                        : 1 (0x1)
Format                         : AVC
Format/Info                    : Advanced Video Codec
Format profile                 : High@L3
Format settings, CABAC         : Yes
Format settings, ReFrames      : 3 frames
Format settings, GOP           : M=4, N=24
Codec ID                       : 27
Duration                       : 1 h 30 min
Bit rate                       : 1 979 kb/s
Width                          : 720 pixels
Height                         : 576 pixels
Display aspect ratio           : 16:9
Frame rate                     : 25.000 FPS
Standard                       : Component
Color space                    : YUV
Chroma subsampling             : 4:2:0
Bit depth                      : 8 bits
Scan type                      : Interlaced
Scan type, store method        : Separated fields
Scan order                     : Top Field First
Bits/(Pixel*Frame)             : 0.191
Stream size                    : 1.26 GiB (87%)
Color range                    : Limited
Color primaries                : BT.601 PAL
Transfer characteristics       : BT.470 System B, BT.470 System G
Matrix coefficients            : BT.601

Audio
ID                             : 68 (0x44)
Menu ID                        : 1 (0x1)
Format                         : MPEG Audio
Format version                 : Version 1
Format profile                 : Layer 2
Codec ID                       : 3
Duration                       : 1 h 30 min
Bit rate mode                  : Constant
Bit rate                       : 192 kb/s
Channel(s)                     : 1 channel
Sampling rate                  : 48.0 kHz
Compression mode               : Lossy
Delay relative to video        : -120 ms
Stream size                    : 125 MiB (8%)




Скриншоты:
[+] Всего файлов в раздаче - 1:
Дочь Чингизхана в XXI веке (2018) [DVB].ts1.45 GB

Показать еще раздачи по запросу дочь:
2019-06-17 U Дочь волка / Daughter of the Wolf (2019) WEB-DL 1080p | L1 5.19 GB ↑ 121 ↓ 91
2019-06-17 U Дочь волка / Daughter of the Wolf (2019) WEB-DLRip | L1 1.46 GB ↑ 221 ↓ 134
2018-10-26 U Светлана / Дочь Сталина [01-08 из 08] (2018) WEB-DLRip от GeneralFilm 4.35 GB ↑ 146 ↓ 119
2018-10-26 U Светлана / Дочь Сталина [01-08 из 08] (2018) HDTVRip-AVC от Files-x 5.81 GB ↑ 295 ↓ 51
2018-10-26 U Светлана / Дочь Сталина [01-08 из 08] (2018) HDTVRip от GeneralFilm 5.24 GB ↑ 99 ↓ 68
2018-10-25 U Светлана / Дочь Сталина [01-08 из 08] (2018) SATRip 4.91 GB ↑ 374 ↓ 591
2018-10-25 U Светлана / Дочь Сталина [01-08 из 08] (2018) SATRip-AVC 5.02 GB ↑ 17 ↓ 3

Отзывы
Зарегистрируйтесь чтобы добавить комментарий.
Обратная связь
Copyleft ©