↑↓Torrent.by
Поиск
Логин: Регистрация
Пароль: Восстановить пароль
Загрузка...

Короче [01-04 из ] (2019) WEBRip-AVC от GeneralFilm

Скачать koroche-01-04-iz-2019-webrip-avc-ot-generalfilm.torrent
U Магнитная ссылка Размер: 1,000.94 MB Раздают: 28 Качают: 50 Добавлен: 2019-06-06 08:42:05
Короче [01-04 из ] (2019) WEBRip-AVC от GeneralFilm

Год выпуска: 2019
Жанр:  Комедия, скетчком
Выпущено: Россия, СУПЕР продакшн, Киностудия "Yellow, Black and White"
Режиссер: Илья Фарфель
В ролях: Борис Дергачев, Константин Шелягин, Дария Гомес, Николай Сороканов, Павел Демьянов, Дмитрий Овчинников, Денис Шаблий, Александра Кузенкина, Александр Якин, Марина Богатова

О фильме: Комедия по-быстрому. Голая правда о тридцатилетних, о которой не говорят вслух. Но не главный герой, этот парень говорит честно, быстро и вообще не думает. Он живёт от зарплаты до зарплаты, ходит в магазин со своим пакетом, хвастается айфоном перед друзьями и, конечно, безнадёжно влюблён.

Кодек: h.264
Качество: WEBRip-AVC
Видео: MPEG-4 AVC, ~ 1400 Кбит/с, 720х400, 25 кадр/с
Аудио: Русский (AC3, 2 ch, 192 Кбит/с)
Продолжительность: 4 х ~ 00:25:00
Перевод: Не требуется
Субтитры: нет

Релиз:


[+] MediaInfo

Общее
Уникальный идентификатор                 : 186760249169330386994933699824921621036 (0x8C80B733811AC999AD7EA7A3C8D4322C)
Полное имя                               : D:Koroche.WEBRip.(AVC).GeneralFilm1.Koroche.WEBRip.(AVC).GeneralFilm.mkv
Формат                                   : Matroska
Версия формата                           : Version 2
Размер файла                             : 249 Мбайт
Продолжительность                        : 22 м. 14 с.
Общий поток                              : 1567 Кбит/сек
Дата кодирования                         : UTC 2019-06-02 23:55:10
Программа кодирования                    : mkvmerge v7.8.0 ('River Man') 32bit built on Apr  3 2015 12:11:22
Библиотека кодирования                   : libebml v1.3.1 + libmatroska v1.4.2

Видео
Идентификатор                            : 1
Формат                                   : AVC
Формат/Информация                        : Advanced Video Codec
Профиль формата                          : High@L4.1
Параметр CABAC формата                   : Да
Параметр ReFrames формата                : 9 кадров
Идентификатор кодека                     : V_MPEG4/ISO/AVC
Продолжительность                        : 22 м. 14 с.
Битрейт                                  : 1374 Кбит/сек
Ширина                                   : 720 пикселей
Высота                                   : 400 пикселей
Соотношение сторон                       : 16:9
Режим частоты кадров                     : Постоянный
Частота кадров                           : 25,000 кадров/сек
Цветовое пространство                    : YUV
Субдискретизация насыщенности            : 4:2:0
Битовая глубина                          : 8 бит
Тип развёртки                            : Прогрессивная
Бит/(Пиксели*Кадры)                      : 0.191
Размер потока                            : 214 Мбайт (86%)
Библиотека кодирования                   : x264 core 146 r2538 121396c
Настройки программы                      : cabac=1 / ref=9 / deblock=1:-2:-1 / analyse=0x3:0x113 / me=umh / subme=9 / psy=1 / psy_rd=1.00:0.15 / mixed_ref=1 / me_range=32 / chroma_me=1 / trellis=2 / 8x8dct=1 / cqm=0 / deadzone=21,11 / fast_pskip=0 / chroma_qp_offset=-3 / threads=18 / lookahead_threads=3 / sliced_threads=0 / nr=0 / decimate=1 / interlaced=0 / bluray_compat=0 / constrained_intra=0 / bframes=9 / b_pyramid=2 / b_adapt=2 / b_bias=0 / direct=3 / weightb=1 / open_gop=0 / weightp=2 / keyint=250 / keyint_min=25 / scenecut=40 / intra_refresh=0 / rc_lookahead=40 / rc=2pass / mbtree=0 / bitrate=1374 / ratetol=1.0 / qcomp=0.60 / qpmin=0 / qpmax=69 / qpstep=4 / cplxblur=20.0 / qblur=0.5 / vbv_maxrate=14000 / vbv_bufsize=14000 / nal_hrd=none / filler=0 / ip_ratio=1.40 / pb_ratio=1.30 / aq=2:1.00
Default                                  : Да
Forced                                   : Нет
Цветовой диапазон                        : Limited
Основные цвета                           : BT.709
Характеристики трансфера                 : BT.709
Коэффициенты матрицы                     : BT.709

Аудио
Идентификатор                            : 2
Формат                                   : AC-3
Формат/Информация                        : Audio Coding 3
Расширение режима                        : CM (complete main)
Параметр Endianness формата              : Big
Идентификатор кодека                     : A_AC3
Продолжительность                        : 22 м. 14 с.
Вид битрейта                             : Постоянный
Битрейт                                  : 192 Кбит/сек
Каналы                                   : 2 канала
Расположение каналов                     : Front: L R
Частота                                  : 48,0 КГц
Частота кадров                           : 31,250 кадров/сек (1536 spf)
Битовая глубина                          : 16 бит
Метод сжатия                             : С потерями
Размер потока                            : 30,5 Мбайт (12%)
Default                                  : Да
Forced                                   : Нет




Скриншоты:
[+] Всего файлов в раздаче - 4:
01.Koroche.WEBRip.(AVC).GeneralFilm.mkv249.14 MB
02.Koroche.WEBRip.(AVC).GeneralFilm.mkv249.27 MB
03.Koroche.WEBRip.(AVC).GeneralFilm.mkv251.31 MB
04.Koroche.WEBRip.(AVC).GeneralFilm.mkv251.22 MB

Показать еще раздачи по запросу короче:
Сегодня U Короче [01-10] (2019) WEBRip от GeneralFilm 2.72 GB ↑ 24 ↓ 93
Сегодня U Короче [01-10] (2019) WEBRip 720p от ExKinoRay 4.32 GB ↑ 28 ↓ 66
Вчера U Короче [01-09] (2019) WEBRip 720p от ExKinoRay 3.89 GB ↑ 47 ↓ 112
2019-06-13 U Короче [01-07] (2019) WEBRip от Files-x 1.98 GB ↑ 19 ↓ 22
2019-06-13 U Короче [01-08] (2019) WEBRip 720p от ExKinoRay 3.48 GB ↑ 11 ↓ 37
2019-06-12 U Короче [01-07] (2019) WEBRip 720p от ExKinoRay 3.03 GB ↑ 139 ↓ 127
2019-06-11 U Короче [01-06] (2019) WEBRip от GeneralFilm 1К1.63 GB ↑ 61 ↓ 83

Отзывы
Зарегистрируйтесь чтобы добавить комментарий.
Обратная связь
Copyleft ©