↑↓Torrent.by
Поиск
Логин: Регистрация
Пароль: Восстановить пароль
Загрузка...

Коридор бессмертия (2019) WEB-DLRip-AVC от ExKinoRay | iTunes

Скачать koridor-bessmertiya-2019-web-dlrip-avc-ot-exkinoray-itunes.torrent
U Магнитная ссылка Размер: 1.08 GB Раздают: 113 Качают: 22 Добавлен: 2019-06-06 11:00:09
Коридор бессмертия (2019) WEB-DLRip-AVC от ExKinoRay | iTunes

Название: Коридор бессмертия
Год выпуска: 2019
Жанр:  Драма, военный, история
Режиссер: Федор Попов
В ролях: Артем Алексеев, Анастасия Цибизова, Игорь Ясулович, Артём Мельничук, Александр Яценко, Дарья Екамасова, Анатолий Горячев, Александр Обласов, Светлана Смирнова-Кацагаджиева, Тагир Рахимов

О фильме:
Вчерашняя ленинградская школьница Маша Яблочкина после лютой блокадной зимы 1941-1942 года приходит на железнодорожные курсы в надежде выжить и набраться сил. Оттуда девушку отправляют на строительство Шлиссельбургской магистрали, соединяющей город с Большой землей и находящейся в прямой видимости немецкой артиллерии. Так героиня попадает в 48-ю паровозную колонну особого резерва НКПС, которой ценой смертельного риска предстоит доставить в Ленинград 75% всех грузов и военного снаряжения.

Страна: Россия
Студия: Студия Стелла
Продолжительность: 02:19:56
Язык: Русский | iTunes

Файл
Формат: MKV
Качество: WEB-DLRip-AVC
Видео: MPEG-4 AVC, 840x348, - 1024 Кбит/с
Аудио:  AAC-HE, 2 ch, - 76 Кбит/с
Субтитры: Нет


[+] MI
Общее
Уникальный идентификатор : 251747910610502045755672193620414726764 (0xBD64E24A6D5BEFFF9CD938D02126826C)
Полное имя : D:MOVIESKoridor.bessmertiya.2019.WEB-DLRip-AVC.ExKinoRay.mkv
Формат : Matroska
Версия формата : Version 4 / Version 2
Размер файла : 1,08 Гбайт
Продолжительность : 2 ч. 19 м.
Общий поток : 1101 Кбит/сек
Дата кодирования : UTC 2019-06-06 04:17:35
Программа кодирования : mkvmerge v32.0.0 ('Astral Progressions') 64-bit
Библиотека кодирования : libebml v1.3.7 + libmatroska v1.5.0

Видео
Идентификатор : 1
Формат : AVC
Формат/Информация : Advanced Video Codec
Профиль формата : High@L4.1
Параметр CABAC формата : Да
Параметр RefFrames формата : 12 кадров
Идентификатор кодека : V_MPEG4/ISO/AVC
Продолжительность : 2 ч. 19 м.
Битрейт : 1024 Кбит/сек
Ширина : 840 пикселей
Высота : 348 пикселей
Соотношение сторон : 2,40:1
Режим частоты кадров : Постоянный
Частота кадров : 23,976 (24000/1001) кадра/сек
Цветовое пространство : YUV
Субдискретизация насыщенности : 4:2:0
Битовая глубина : 8 бит
Тип развёртки : Прогрессивная
Бит/(Пиксели*Кадры) : 0.146
Размер потока : 1,00 Гбайт (93%)
Библиотека кодирования : x264 core 152 r2851kMod ba24899
Настройки программы : cabac=1 / ref=12 / deblock=1:-3:-3 / analyse=0x3:0x133 / me=umh / subme=10 / psy=1 / fade_compensate=0.00 / psy_rd=1.00:0.13 / mixed_ref=1 / me_range=32 / chroma_me=1 / trellis=2 / 8x8dct=1 / cqm=0 / deadzone=21,11 / fast_pskip=0 / chroma_qp_offset=-3 / threads=6 / lookahead_threads=1 / sliced_threads=0 / nr=0 / decimate=0 / interlaced=0 / bluray_compat=0 / constrained_intra=0 / bframes=12 / b_pyramid=2 / b_adapt=2 / b_bias=0 / direct=3 / weightb=1 / open_gop=0 / weightp=2 / keyint=240 / keyint_min=23 / scenecut=40 / intra_refresh=0 / rc_lookahead=40 / rc=2pass / mbtree=1 / bitrate=1024 / ratetol=1.0 / qcomp=0.60 / qpmin=0 / qpmax=69 / qpstep=4 / cplxblur=20.0 / qblur=0.5 / ip_ratio=1.40 / aq=3:1.00
Default : Да
Forced : Нет

Аудио
Идентификатор : 2
Формат : AAC
Формат/Информация : Advanced Audio Codec
Профиль формата : HE-AAC / LC
Идентификатор кодека : A_AAC
Продолжительность : 2 ч. 19 м.
Битрейт : 76,0 Кбит/сек
Каналы : 2 канала
Расположение каналов : Front: L R
Частота : 48,0 КГц / 24,0 КГц
Частота кадров : 23,438 кадра/сек (1024 SPF)
Метод сжатия : С потерями
Задержка видео : 31 мс.
Размер потока : 76,1 Мбайт (7%)
Default : Да
Forced : Нет

Меню
00:00:00.000 : en:1
00:08:12.000 : en:2
00:16:35.000 : en:3
00:26:19.000 : en:4
00:36:34.000 : en:5
00:46:23.000 : en:6
00:57:21.000 : en:7
01:06:59.000 : en:8
01:17:37.000 : en:9
01:28:13.000 : en:10
01:37:32.000 : en:11
01:47:31.000 : en:12
01:57:53.000 : en:13
02:07:59.000 : en:14
02:15:30.000 : en:15



Скриншоты:
[+] Всего файлов в раздаче - 1:
Koridor.bessmertiya.2019.WEB-DLRip-AVC.ExKinoRay.mkv1.08 GB

Показать еще раздачи по запросу коридор:
2019-06-07 U Коридор бессмертия (2019) WEB-DLRip от Generalfilm | КПК | iTunes 532.18 MB ↑ 39 ↓ 7
2019-06-07 U Коридор бессмертия (2019) WEB-DLRip от Scarabey | iTunes 1.45 GB ↑ 117 ↓ 45
2019-06-05 U Коридор бессмертия (2019) WEB-DLRip от Portablius | iTunes 801.83 MB ↑ 149 ↓ 51
2019-06-05 U Коридор бессмертия (2019) WEB-DLRip-AVC от Files-x | iTunes 2.17 GB ↑ 207 ↓ 62
2019-06-05 U Коридор бессмертия (2019) WEB-DLRip от MegaPeer | iTunes 2.18 GB ↑ 320 ↓ 90
2019-06-05 U Коридор бессмертия (2019) WEB-DL 720p | iTunes 4.32 GB ↑ 439 ↓ 235
2019-06-05 U Коридор бессмертия (2019) WEB-DLRip от MegaPeer | iTunes 1.46 GB ↑ 837 ↓ 273

Отзывы
Зарегистрируйтесь чтобы добавить комментарий.
Обратная связь
Copyleft ©