↑↓Torrent.by
Поиск
Логин: Регистрация
Пароль: Восстановить пароль
Загрузка...

Родители лёгкого поведения / Drunk Parents (2019) BDRip 720p от селезень | D, P | Лицензия

Скачать roditeli-legkogo-povedeniya-drunk-parents-2019-bdrip-720p-ot-selezen-d-p-licenziya.torrent
U Магнитная ссылка Размер: 5.26 GB Раздают: 74 Качают: 35 Добавлен: 2019-06-06 11:00:17
Родители лёгкого поведения / Drunk Parents (2019) BDRip 720p от селезень | D, P | Лицензия

Название: Родители лёгкого поведения
Оригинальное название: Drunk Parents
Год выхода: 2019
Жанр: Комедия
Режиссер: Фред Вульф
В ролях: Сальма Хайек, Алек Болдуин, Бриджет Мойнэхэн, Джо Манганьелло, Трит Уильямс, Бен Платт, Саша Митчелл, Джим Гэффиган, Оливия Луккарди, Эйми Маллинз

О фильме: Семейная пара Фрэнк и Нэнси пытаются скрыть от друзей и дочери свой полный финансовый крах. Для этого они идут на всё, даже сдают в аренду чужой особняк. Но получится ли у двух горе-авантюристов провернуть свои невероятные махинации? Ведь каждый их шаг — отличный повод откупорить новую бутылку…

Страна: США
Студия: BRON Studios, Creative Wealth Media Finance, Fortitude International
Продолжительность: 01:37:06
Перевод(ы):
#1: Дублированный | Лицензия R5
#2: Профессиональный многоголосый | HDRezka Studio

Качество: BDRip 720p
Видео: MPEG-4 AVC, 1280x692, 6471 Kbit/s, 23.976 fps
Звук:
Аудио #01: 48 kHz, AC3, 5.1, 448 Kbps | Дублированный | RUS |
Аудио #02: 48 kHz, AC3, 2.0, 192 Kbps | Профессиональный многоголосый | RUS |
Аудио #03: 48 kHz, AC3, 5.1, 640 Kbps | Оригинал |  ENG |
Субтитры: Английские

Релиз:


[+] MI
General
Unique ID                   : 89973528943964093525586458108374160045 (0x43B04577D191C8BACD5E67BDDD7E12AD)
Complete name               : D:Video111Drunk.Parents.2019.BDRip.720p.seleZen.mkv
Format                      : Matroska
Format version              : Version 4
File size                   : 5.26 GiB
Duration                    : 1 h 37 min
Overall bit rate            : 7 754 kb/s
Movie name                  : Drunk Parents 2019 from селезень
Encoded date                : UTC 2019-06-06 02:04:34
Writing application         : mkvmerge v33.1.0 ('Primrose') 64-bit
Writing library             : libebml v1.3.7 + libmatroska v1.5.0

Video
ID                          : 1
Format                      : AVC
Format/Info                 : Advanced Video Codec
Format profile              : High@L4.1
Format settings             : CABAC / 9 Ref Frames
Format settings, CABAC      : Yes
Format settings, Reference  : 9 frames
Codec ID                    : V_MPEG4/ISO/AVC
Duration                    : 1 h 37 min
Bit rate                    : 6 471 kb/s
Width                       : 1 280 pixels
Height                      : 692 pixels
Display aspect ratio        : 1.85:1
Frame rate mode             : Constant
Frame rate                  : 23.976 (24000/1001) FPS
Color space                 : YUV
Chroma subsampling          : 4:2:0
Bit depth                   : 8 bits
Scan type                   : Progressive
Bits/(Pixel*Frame)          : 0.305
Stream size                 : 4.39 GiB (83%)
Title                       : iFT
Writing library             : x264 core 155 r2867+74 66b5600 t_mod_Custom_2 [8-bit@all X86_64]
Encoding settings           : cabac=1 / ref=9 / deblock=1:-3:-3 / analyse=0x3:0x113 / me=umh / subme=11 / psy=1 / fade_compensate=0.00 / psy_rd=1.00:0.00 / mixed_ref=1 / me_range=32 / chroma_me=1 / trellis=2 / 8x8dct=1 / cqm=0 / deadzone=21,11 / fast_pskip=0 / chroma_qp_offset=-2 / threads=12 / lookahead_threads=2 / sliced_threads=0 / nr=0 / decimate=0 / interlaced=0 / bluray_compat=0 / constrained_intra=0 / fgo=0 / bframes=8 / b_pyramid=2 / b_adapt=2 / b_bias=0 / direct=3 / weightb=1 / open_gop=0 / weightp=2 / keyint=250 / keyint_min=23 / scenecut=40 / intra_refresh=0 / rc_lookahead=60 / rc=crf / mbtree=0 / crf=15.0000 / qcomp=0.60 / qpmin=0:0:0 / qpmax=69:69:69 / qpstep=4 / vbv_maxrate=62500 / vbv_bufsize=78125 / crf_max=0.0 / nal_hrd=none / filler=0 / ip_ratio=1.30 / pb_ratio=1.20 / aq=3:0.80 / aq-sensitivity=10.00 / aq-factor=1.00:1.00:1.00 / aq2=0 / aq3=0
Language                    : English
Default                     : Yes
Forced                      : No
Color range                 : Limited
Color primaries             : BT.709
Transfer characteristics    : BT.709
Matrix coefficients         : BT.709

Audio #1
ID                          : 2
Format                      : AC-3
Format/Info                 : Audio Coding 3
Commercial name             : Dolby Digital
Codec ID                    : A_AC3
Duration                    : 1 h 37 min
Bit rate mode               : Constant
Bit rate                    : 448 kb/s
Channel(s)                  : 6 channels
Channel layout              : L R C LFE Ls Rs
Sampling rate               : 48.0 kHz
Frame rate                  : 31.250 FPS (1536 SPF)
Bit depth                   : 16 bits
Compression mode            : Lossy
Stream size                 : 311 MiB (6%)
Title                       : Dub [License R5]
Language                    : Russian
Service kind                : Complete Main
Default                     : Yes
Forced                      : Yes

Audio #2
ID                          : 3
Format                      : AC-3
Format/Info                 : Audio Coding 3
Commercial name             : Dolby Digital
Codec ID                    : A_AC3
Duration                    : 1 h 37 min
Bit rate mode               : Constant
Bit rate                    : 192 kb/s
Channel(s)                  : 2 channels
Channel layout              : L R
Sampling rate               : 48.0 kHz
Frame rate                  : 31.250 FPS (1536 SPF)
Bit depth                   : 16 bits
Compression mode            : Lossy
Stream size                 : 133 MiB (2%)
Title                       : MVO [HDRezka Studio]
Language                    : Russian
Service kind                : Complete Main
Default                     : No
Forced                      : No

Audio #3
ID                          : 4
Format                      : AC-3
Format/Info                 : Audio Coding 3
Commercial name             : Dolby Digital
Codec ID                    : A_AC3
Duration                    : 1 h 37 min
Bit rate mode               : Constant
Bit rate                    : 640 kb/s
Channel(s)                  : 6 channels
Channel layout              : L R C LFE Ls Rs
Sampling rate               : 48.0 kHz
Frame rate                  : 31.250 FPS (1536 SPF)
Bit depth                   : 16 bits
Compression mode            : Lossy
Stream size                 : 445 MiB (8%)
Title                       : Original
Language                    : English
Service kind                : Complete Main
Default                     : No
Forced                      : No

Text #1
ID                          : 5
Format                      : UTF-8
Codec ID                    : S_TEXT/UTF8
Codec ID/Info               : UTF-8 Plain Text
Duration                    : 1 h 30 min
Bit rate                    : 87 b/s
Count of elements           : 1890
Stream size                 : 58.0 KiB (0%)
Title                       : Full
Language                    : English
Default                     : No
Forced                      : No

Text #2
ID                          : 6
Format                      : UTF-8
Codec ID                    : S_TEXT/UTF8
Codec ID/Info               : UTF-8 Plain Text
Duration                    : 1 h 30 min
Bit rate                    : 93 b/s
Count of elements           : 2054
Stream size                 : 62.1 KiB (0%)
Title                       : SDH
Language                    : English
Default                     : No
Forced                      : No

Menu
00:00:00.000                : en:Chapter 01
00:13:19.340                : en:Chapter 02
00:26:02.478                : en:Chapter 03
00:38:53.540                : en:Chapter 04
00:52:10.878                : en:Chapter 05
01:05:11.658                : en:Chapter 06
01:17:33.274                : en:Chapter 07
01:30:34.888                : en:Chapter 08



Скриншоты:
[+] Всего файлов в раздаче - 1:
Drunk.Parents.2019.BDRip.720p.seleZen.mkv5.26 GB

Похожие раздачи по запросу - родители:
2019-09-17 U Мама и папа / Безумные родители / Mom and Dad (2017) BDRip-AVC от OlLanDGroup | iTunes 1.60 GB ↑ 54 ↓ 20
2019-09-17 U Безумные родители / Mom and Dad (2017) BDRip от MegaPeer | iTunes 1.46 GB ↑ 56 ↓ 37
2019-06-06 U Родители лёгкого поведения / Drunk Parents (2019) BDRip от Twister & ExKinoRay | Лицензия 1.46 GB ↑ 414 ↓ 100
2019-05-24 U Родители лёгкого поведения / Drunk Parents (2018) BDRip 1080p | iTunes, P 6.95 GB ↑ 166 ↓ 15

Отзывы
Зарегистрируйтесь чтобы добавить комментарий.
Обратная связь
Copyleft ©