↑↓Torrent.by
Поиск
Логин: Регистрация
Пароль: Восстановить пароль
Загрузка...

Удивительный мир Марвена / Welcome to Marwen (2018) BDRip 1080p от селезень | Лицензия

Скачать udivitelnyy-mir-marvena-welcome-to-marwen-2018-bdrip-1080p-ot-selezen-licenziya.torrent
U Магнитная ссылка Размер: 10.40 GB Раздают: 128 Качают: 34 Добавлен: 2019-06-07 06:16:32
Удивительный мир Марвена / Welcome to Marwen (2018) BDRip 1080p от селезень | Лицензия

Название: Удивительный мир Марвена
Оригинальное название: Welcome to Marwen
Год выхода: 2018
Жанр: Фэнтези, драма, комедия, биография
Режиссер: Роберт Земекис
В ролях: Стив Карелл, Фальк Хеншел, Мэтт О`Лири, Николай Вич, Патрик Роккас, Александр Лоу, Эйса Гонсалес, Лесли Земекис, Мерритт Уивер, Гвендолин Кристи

О фильме: История о жертве уличного нападения Марке Хоганкэмпе, который оправлялся от психологической травмы с помощью «кукольной» терапии. Во дворе своего дома он выстроил игрушечный город времён Второй мировой войны и населил его фигурками, похожими на реальных людей из своего прошлого.

Страна: США
Студия: Canadian Film or Video Production Tax Credit (CPTC), DreamWorks, ImageMovers
Продолжительность: 01:55:56
Перевод: Дублированный | Лицензия

Качество: BDRip 1080p
Видео: MPEG-4 AVC, 1920x804, 11.6 Mbit/s, 23.976 fps
Звук:
Аудио #01: 48 kHz, AC3, 5.1, 640 Kbps | Дублированный | RUS |
Аудио #02: 48 kHz, AC3, 5.1, 640 Kbps | Оригинал |  ENG |
Субтитры: Русские (Forced, full), английские

Релиз:


[+] MI
General
Unique ID                   : 242686912984393884022064057765310536608 (0xB693CC9DCB6A42367CB2BE3FC6889BA0)
Complete name               : D:Video111Welcome.to.Marwen.2018.BDRip.1080p.seleZen.mkv
Format                      : Matroska
Format version              : Version 4
File size                   : 10.4 GiB
Duration                    : 1 h 55 min
Overall bit rate            : 12.8 Mb/s
Movie name                  : Welcome to Marwen 2018 from селезень
Encoded date                : UTC 2019-06-06 15:13:39
Writing application         : mkvmerge v33.1.0 ('Primrose') 64-bit
Writing library             : libebml v1.3.7 + libmatroska v1.5.0

Video
ID                          : 1
Format                      : AVC
Format/Info                 : Advanced Video Codec
Format profile              : High@L4.1
Format settings             : CABAC / 5 Ref Frames
Format settings, CABAC      : Yes
Format settings, Reference  : 5 frames
Codec ID                    : V_MPEG4/ISO/AVC
Duration                    : 1 h 55 min
Bit rate                    : 11.6 Mb/s
Width                       : 1 920 pixels
Height                      : 804 pixels
Display aspect ratio        : 2.40:1
Frame rate mode             : Constant
Frame rate                  : 23.976 (24000/1001) FPS
Color space                 : YUV
Chroma subsampling          : 4:2:0
Bit depth                   : 8 bits
Scan type                   : Progressive
Bits/(Pixel*Frame)          : 0.312
Stream size                 : 9.37 GiB (90%)
Title                       : playHD
Writing library             : x264 core 146 r2538 121396c
Encoding settings           : cabac=1 / ref=5 / deblock=1:-3:-3 / analyse=0x3:0x133 / me=umh / subme=10 / psy=1 / psy_rd=1.00:0.00 / mixed_ref=1 / me_range=32 / chroma_me=1 / trellis=2 / 8x8dct=1 / cqm=0 / deadzone=21,11 / fast_pskip=0 / chroma_qp_offset=-2 / threads=18 / lookahead_threads=3 / sliced_threads=0 / nr=0 / decimate=0 / interlaced=0 / bluray_compat=0 / constrained_intra=0 / bframes=8 / b_pyramid=2 / b_adapt=2 / b_bias=0 / direct=3 / weightb=1 / open_gop=0 / weightp=2 / keyint=250 / keyint_min=23 / scenecut=40 / intra_refresh=0 / rc=crf / mbtree=0 / crf=16.0 / qcomp=0.60 / qpmin=0 / qpmax=69 / qpstep=4 / ip_ratio=1.30 / pb_ratio=1.20 / aq=3:0.80
Language                    : English
Default                     : Yes
Forced                      : No

Audio #1
ID                          : 2
Format                      : AC-3
Format/Info                 : Audio Coding 3
Commercial name             : Dolby Digital
Codec ID                    : A_AC3
Duration                    : 1 h 55 min
Bit rate mode               : Constant
Bit rate                    : 640 kb/s
Channel(s)                  : 6 channels
Channel layout              : L R C LFE Ls Rs
Sampling rate               : 48.0 kHz
Frame rate                  : 31.250 FPS (1536 SPF)
Bit depth                   : 16 bits
Compression mode            : Lossy
Stream size                 : 531 MiB (5%)
Title                       : Dub [License]
Language                    : Russian
Service kind                : Complete Main
Default                     : Yes
Forced                      : Yes

Audio #2
ID                          : 3
Format                      : AC-3
Format/Info                 : Audio Coding 3
Commercial name             : Dolby Digital
Codec ID                    : A_AC3
Duration                    : 1 h 55 min
Bit rate mode               : Constant
Bit rate                    : 640 kb/s
Channel(s)                  : 6 channels
Channel layout              : L R C LFE Ls Rs
Sampling rate               : 48.0 kHz
Frame rate                  : 31.250 FPS (1536 SPF)
Bit depth                   : 16 bits
Compression mode            : Lossy
Stream size                 : 531 MiB (5%)
Title                       : Original
Language                    : English
Service kind                : Complete Main
Default                     : No
Forced                      : No

Text #1
ID                          : 4
Format                      : UTF-8
Codec ID                    : S_TEXT/UTF8
Codec ID/Info               : UTF-8 Plain Text
Duration                    : 1 h 54 min
Bit rate                    : 0 b/s
Count of elements           : 13
Stream size                 : 853 Bytes (0%)
Title                       : Forced
Language                    : Russian
Default                     : Yes
Forced                      : Yes

Text #2
ID                          : 5
Format                      : UTF-8
Codec ID                    : S_TEXT/UTF8
Codec ID/Info               : UTF-8 Plain Text
Duration                    : 1 h 48 min
Bit rate                    : 83 b/s
Count of elements           : 1386
Stream size                 : 66.3 KiB (0%)
Title                       : Full
Language                    : Russian
Default                     : No
Forced                      : No

Text #3
ID                          : 6
Format                      : UTF-8
Codec ID                    : S_TEXT/UTF8
Codec ID/Info               : UTF-8 Plain Text
Duration                    : 1 h 46 min
Bit rate                    : 52 b/s
Count of elements           : 1464
Stream size                 : 41.2 KiB (0%)
Title                       : Full
Language                    : English
Default                     : No
Forced                      : No

Text #4
ID                          : 7
Format                      : UTF-8
Codec ID                    : S_TEXT/UTF8
Codec ID/Info               : UTF-8 Plain Text
Duration                    : 1 h 46 min
Bit rate                    : 62 b/s
Count of elements           : 1663
Stream size                 : 48.7 KiB (0%)
Title                       : SDH
Language                    : English
Default                     : No
Forced                      : No

Menu
00:00:00.000                : en:Chapter 01
00:04:17.257                : en:Chapter 02
00:10:57.448                : en:Chapter 03
00:16:42.876                : en:Chapter 04
00:22:26.970                : en:Chapter 05
00:27:34.819                : en:Chapter 06
00:35:10.775                : en:Chapter 07
00:41:09.216                : en:Chapter 08
00:45:59.173                : en:Chapter 09
00:51:35.634                : en:Chapter 10
01:00:35.923                : en:Chapter 11
01:03:30.973                : en:Chapter 12
01:08:07.249                : en:Chapter 13
01:13:38.705                : en:Chapter 14
01:17:14.713                : en:Chapter 15
01:25:13.525                : en:Chapter 16
01:30:48.484                : en:Chapter 17
01:39:34.718                : en:Chapter 18
01:43:31.371                : en:Chapter 19
01:48:50.106                : en:Chapter 20



Скриншоты:
[+] Всего файлов в раздаче - 1:
Welcome.to.Marwen.2018.BDRip.1080p.seleZen.mkv10.40 GB

Показать еще раздачи по запросу удивительный:
2019-06-08 U Удивительный мир Марвена / Welcome to Marwen (2018) BDRip от Twister & ExKinoRay | Лицензия 1.46 GB ↑ 36 ↓ 11
2019-06-07 U Удивительный мир Марвена / Welcome to Marwen (2018) BDRip 720p | Лицензия 6.30 GB ↑ 24 ↓ 21
2019-06-07 U Удивительный мир Марвена / Welcome to Marwen (2018) BDRip от MegaPeer | Лицензия 1.46 GB ↑ 155 ↓ 37
2019-04-09 U Удивительный мир Марвена / Welcome to Marwen (2018) BDRip от MegaPeer | HDRezka Studio 1.46 GB ↑ 144 ↓ 50
2019-04-09 U Удивительный мир Марвена / Welcome to Marwen (2018) BDRip-AVC от OlLanDGroup | HDRezka Studio 2.00 GB ↑ 152 ↓ 60
2019-04-09 U Удивительный мир Марвена / Welcome to Marwen (2018) BDRip 1080p от ExKinoRay | HDRezka Studio 8.70 GB ↑ 116 ↓ 119
2019-01-08 U BBC. Удивительный мир данных / The Joy of Data (2016) HDTV 1080i | P2 3.38 GB ↑ 30 ↓ 16

Отзывы
Зарегистрируйтесь чтобы добавить комментарий.
Обратная связь
Copyleft ©