↑↓Torrent.by
Поиск
Логин: Регистрация
Пароль: Восстановить пароль
Загрузка...

Удивительный мир Марвена / Welcome to Marwen (2018) BDRip 720p | Лицензия

Скачать udivitelnyy-mir-marvena-welcome-to-marwen-2018-bdrip-720p-licenziya.torrent
U Магнитная ссылка Размер: 6.30 GB Раздают: 24 Качают: 21 Добавлен: 2019-06-07 06:20:29
Удивительный мир Марвена / Welcome to Marwen (2018) BDRip 720p | Лицензия

«The Director of FORREST GUMP Invites You to a Most Unexpected Place»

Название: Удивительный мир Марвена  
Оригинальное название: Welcome to Marwen
Год выхода: 2018
Жанр: Фэнтези, драма, комедия, биография
Режиссер: Роберт Земекис
В ролях: Стив Карелл, Фальк Хеншел, Мэтт О`Лири, Николай Вич, Патрик Роккас, Александр Лоу, Эйса Гонсалес, Лесли Земекис, Мерритт Уивер, Гвендолин Кристи

О фильме:
История о жертве уличного нападения Марке Хоганкэмпе, который оправлялся от психологической травмы с помощью «кукольной» терапии. Во дворе своего дома он выстроил игрушечный город времён Второй мировой войны и населил его фигурками, похожими на реальных людей из своего прошлого.

Страна: Япония, США
Студия: Canadian Film or Video Production Tax Credit (CPTC), Dentsu, DreamWorks SKG, Fuji Television Network Inc., ImageMovers, Universal Pictures
Продолжительность: 01:55:56
Перевод:
     • Профессиональный (полное дублирование) | Лицензия

Файл
Качество: BDRip 720p
Формат: MKV
Кодек: MPEG-4 AVC
Видео: 1280x536 (2,40:1), 23,976 fps, MPEG-4 AVC ~ 6500 Kbps avg, 0.395 bit/pixel
Аудио:  AC3, 48 kHz, 6 ch, ~640.00 kbps avg | русский | Лицензия
Аудио:  AC3, 48 kHz, 6 ch, ~640.00.00 kbps avg | английский | Оригинал

Субтитры: Русские (Forced, full), Английские (Full, SDH)


[+] Инфо-файл
Общее
Уникальный идентификатор                 : 229395154514634332583294152121302162494 (0xAC93E653E64FA8BB767F58FDB2609C3E)
Полное имя                               : Welcome.to.Marwen.2018.720p.BluRay.DD5.1.x264.Rus.Eng.mkv
Формат                                   : Matroska
Версия формата                           : Version 4 / Version 2
Размер файла                             : 6,30 Гбайт
Продолжительность                        : 1 ч. 55 м.
Общий поток                              : 7783 Кбит/сек
Название фильма                          : Удивительный мир Марвена / Welcome to Marwen (2018)
Дата кодирования                         : UTC 2019-06-06 19:31:22
Программа кодирования                    : mkvmerge v27.0.0 ('Metropolis') 64-bit
Библиотека кодирования                   : libebml v1.3.6 + libmatroska v1.4.9

Видео
Идентификатор                            : 1
Формат                                   : AVC
Формат/Информация                        : Advanced Video Codec
Профиль формата                          : High@L4.1
Настройки формата                        : CABAC / 12 Ref Frames
Параметр CABAC формата                   : Да
Параметр RefFrames формата               : 12 кадров
Идентификатор кодека                     : V_MPEG4/ISO/AVC
Продолжительность                        : 1 ч. 55 м.
Битрейт                                  : 6500 Кбит/сек
Ширина                                   : 1280 пикселей
Высота                                   : 536 пикселей
Соотношение сторон                       : 2,40:1
Режим частоты кадров                     : Постоянный
Частота кадров                           : 23,976 (24000/1001) кадра/сек
Цветовое пространство                    : YUV
Субдискретизация насыщенности            : 4:2:0
Битовая глубина                          : 8 бит
Тип развёртки                            : Прогрессивная
Бит/(Пиксели*Кадры)                      : 0.395
Размер потока                            : 5,26 Гбайт (84%)
Заголовок                                : iFT
Библиотека кодирования                   : x264 core 155 r2867+74 66b5600 t_mod_Custom_2 [8-bit@all X86_64]
Настройки программы                      : cabac=1 / ref=12 / deblock=1:-3:-3 / analyse=0x3:0x133 / me=umh / subme=11 / psy=1 / fade_compensate=0.00 / psy_rd=1.00:0.00 / mixed_ref=1 / me_range=32 / chroma_me=1 / trellis=2 / 8x8dct=1 / cqm=0 / deadzone=21,11 / fast_pskip=0 / chroma_qp_offset=-2 / threads=17 / lookahead_threads=2 / sliced_threads=0 / nr=0 / decimate=0 / interlaced=0 / bluray_compat=0 / constrained_intra=0 / fgo=0 / bframes=8 / b_pyramid=2 / b_adapt=2 / b_bias=0 / direct=3 / weightb=1 / open_gop=0 / weightp=2 / keyint=250 / keyint_min=23 / scenecut=40 / intra_refresh=0 / rc=2pass / mbtree=0 / bitrate=6500 / ratetol=1.0 / qcomp=0.60 / qpmin=0:0:0 / qpmax=69:69:69 / qpstep=4 / cplxblur=20.0 / qblur=0.5 / ip_ratio=1.30 / pb_ratio=1.20 / aq=3:0.70 / aq-sensitivity=10.00 / aq-factor=1.00:1.00:1.00 / aq2=0 / aq3=0
Язык                                     : English
Default                                  : Да
Forced                                   : Нет
Цветовой диапазон                        : Limited
Коэффициенты матрицы                     : BT.709

Аудио #1
Идентификатор                            : 2
Формат                                   : AC-3
Формат/Информация                        : Audio Coding 3
Идентификатор кодека                     : A_AC3
Продолжительность                        : 1 ч. 55 м.
Вид битрейта                             : Постоянный
Битрейт                                  : 640 Кбит/сек
Каналы                                   : 6 каналов
Расположение каналов                     : Front: L C R, Side: L R, LFE
Частота                                  : 48,0 КГц
Частота кадров                           : 31,250 кадров/сек (1536 SPF)
Битовая глубина                          : 16 бит
Метод сжатия                             : С потерями
Размер потока                            : 531 Мбайт (8%)
Заголовок                                : Dub | Лицензия
Язык                                     : Russian
Default                                  : Нет
Forced                                   : Да

Аудио #2
Идентификатор                            : 3
Формат                                   : AC-3
Формат/Информация                        : Audio Coding 3
Идентификатор кодека                     : A_AC3
Продолжительность                        : 1 ч. 55 м.
Вид битрейта                             : Постоянный
Битрейт                                  : 640 Кбит/сек
Каналы                                   : 6 каналов
Расположение каналов                     : Front: L C R, Side: L R, LFE
Частота                                  : 48,0 КГц
Частота кадров                           : 31,250 кадров/сек (1536 SPF)
Битовая глубина                          : 16 бит
Метод сжатия                             : С потерями
Размер потока                            : 531 Мбайт (8%)
Заголовок                                : Original
Язык                                     : English
Default                                  : Нет
Forced                                   : Нет

Текст #1
Идентификатор                            : 4
Формат                                   : UTF-8
Идентификатор кодека                     : S_TEXT/UTF8
Идентификатор кодека/Информация          : UTF-8 Plain Text
Продолжительность                        : 1 ч. 54 м.
Битрейт                                  : 0 бит/сек
ElementCount                             : 13
Размер потока                            : 853 байт (0%)
Заголовок                                : Forced
Язык                                     : Russian
Default                                  : Да
Forced                                   : Да

Текст #2
Идентификатор                            : 5
Формат                                   : UTF-8
Идентификатор кодека                     : S_TEXT/UTF8
Идентификатор кодека/Информация          : UTF-8 Plain Text
Продолжительность                        : 1 ч. 48 м.
Битрейт                                  : 83 бит/сек
ElementCount                             : 1386
Размер потока                            : 66,3 Кбайт (0%)
Заголовок                                : Full
Язык                                     : Russian
Default                                  : Нет
Forced                                   : Нет

Текст #3
Идентификатор                            : 6
Формат                                   : UTF-8
Идентификатор кодека                     : S_TEXT/UTF8
Идентификатор кодека/Информация          : UTF-8 Plain Text
Продолжительность                        : 1 ч. 46 м.
Битрейт                                  : 52 бит/сек
ElementCount                             : 1464
Размер потока                            : 41,2 Кбайт (0%)
Заголовок                                : Full
Язык                                     : English
Default                                  : Нет
Forced                                   : Нет

Текст #4
Идентификатор                            : 7
Формат                                   : UTF-8
Идентификатор кодека                     : S_TEXT/UTF8
Идентификатор кодека/Информация          : UTF-8 Plain Text
Продолжительность                        : 1 ч. 46 м.
Битрейт                                  : 62 бит/сек
ElementCount                             : 1663
Размер потока                            : 48,7 Кбайт (0%)
Заголовок                                : SDH
Язык                                     : English
Default                                  : Нет
Forced                                   : Нет

Меню
00:00:00.000                             : en:Chapter 01
00:04:17.257                             : en:Chapter 02
00:10:57.448                             : en:Chapter 03
00:16:42.876                             : en:Chapter 04
00:22:26.970                             : en:Chapter 05
00:27:34.819                             : en:Chapter 06
00:35:10.775                             : en:Chapter 07
00:41:09.216                             : en:Chapter 08
00:45:59.173                             : en:Chapter 09
00:51:35.634                             : en:Chapter 10
01:00:35.923                             : en:Chapter 11
01:03:30.973                             : en:Chapter 12
01:08:07.249                             : en:Chapter 13
01:13:38.705                             : en:Chapter 14
01:17:14.713                             : en:Chapter 15
01:25:13.525                             : en:Chapter 16
01:30:48.484                             : en:Chapter 17
01:39:34.718                             : en:Chapter 18
01:43:31.371                             : en:Chapter 19
01:48:50.106                             : en:Chapter 20



Скриншоты:
[+] Всего файлов в раздаче - 1:
Welcome.to.Marwen.2018.720p.BluRay.DD5.1.x264.Rus.Eng.mkv6.30 GB

Показать еще раздачи по запросу удивительный:
2019-06-08 U Удивительный мир Марвена / Welcome to Marwen (2018) BDRip от Twister & ExKinoRay | Лицензия 1.46 GB ↑ 36 ↓ 11
2019-06-07 U Удивительный мир Марвена / Welcome to Marwen (2018) BDRip 1080p от селезень | Лицензия 10.40 GB ↑ 141 ↓ 34
2019-06-07 U Удивительный мир Марвена / Welcome to Marwen (2018) BDRip от MegaPeer | Лицензия 1.46 GB ↑ 163 ↓ 37
2019-04-09 U Удивительный мир Марвена / Welcome to Marwen (2018) BDRip от MegaPeer | HDRezka Studio 1.46 GB ↑ 144 ↓ 50
2019-04-09 U Удивительный мир Марвена / Welcome to Marwen (2018) BDRip-AVC от OlLanDGroup | HDRezka Studio 2.00 GB ↑ 160 ↓ 60
2019-04-09 U Удивительный мир Марвена / Welcome to Marwen (2018) BDRip 1080p от ExKinoRay | HDRezka Studio 8.70 GB ↑ 134 ↓ 119
2019-01-08 U BBC. Удивительный мир данных / The Joy of Data (2016) HDTV 1080i | P2 3.38 GB ↑ 30 ↓ 16

Отзывы
Зарегистрируйтесь чтобы добавить комментарий.
Обратная связь
Copyleft ©