↑↓Torrent.by
Поиск
Логин: Регистрация
Пароль: Восстановить пароль
Загрузка...

Немедленное реагирование [01-08 из 10] (2019) WEBRip от Files-x

Скачать nemedlennoe-reagirovanie-01-08-iz-10-2019-webrip-ot-files-x.torrent
U Магнитная ссылка Размер: 4.91 GB Раздают: 42 Качают: 67 Добавлен: 2019-06-07 12:15:12
Немедленное реагирование  [01-08 из 10] (2019) WEBRip от Files-x

Оригинальное название: Немедленное реагирование
Год выпуска: 2019
Жанр:  Детектив, криминальный фильм
Режиссер: Владимир Койфман
В ролях: Иван Батарев, Илья Алексеев, Максим Меркулов (II), Елена Радевич, Александр Конев, Анна Чурина, Виталий Коваленко, Роман Грибков, Денис Синявский, Андрей Гульнев, Георгий Маришин, Андрей Мокеев, Андрей Полищук, Андрей Аверков, Богдан Псел, Виталий Олечкин, Евгений Покрамович, Кирилл Балобан, Владлена Осичкина, Владимир Маслаков, Андрей Либенсон, Леон Словицкий, Денис Кириллов, Яков Петров, Дмитрий Миков

О фильме: Капитан полиции Александр Осокин — командир группы Немедленного Реагирования. Прибыв на очередной экстренный вызов, группа оказывается под перекрёстным огнём наркоторговцев. В перестрелке получает тяжёлое ранение- прапорщик Порс, а старший лейтенант Зуев — погибает. Ситуация осложняется тем, что с места происшествия пропала сумка с крупной суммой денег. Осокину удаётся найти пропавшие деньги. Но перед ним встаёт моральный выбор: сдать деньги в полицию или использовать их, чтобы помочь близким.

Выпущено: Россия
Студия:  Киностудия КИТ по заказу телеканала НТВ
Продолжительность: 8 x ~ 00:48:00
Перевод: Не требуется

Файл
Качество: WEBRip
Видео: XviD, ~ 1600 Кбит/с, 720x400
Аудио: AC3, 2 ch, 192 Кбит/с

Релиз:


[+] MediaInfo

General
Complete name                    : H:Немедленное реагирование.(2019).WEBRip..Files-x1.Немедленное реагирование.2019.WEBRip.Files-x.avi
Format                           : AVI
Format/Info                      : Audio Video Interleave
File size                        : 622 MiB
Duration                         : 48mn 18s
Overall bit rate                 : 1 802 Kbps
Writing application              : VirtualDubMod 1.5.10.3 | www.virtualdub-fr.org || (build 2550/release)
Writing library                  : VirtualDubMod build 2550/release

Video
ID                               : 0
Format                           : MPEG-4 Visual
Format profile                   : Advanced Simple@L5
Format settings, BVOP            : 1
Format settings, QPel            : No
Format settings, GMC             : No warppoints
Format settings, Matrix          : Custom
Codec ID                         : XVID
Codec ID/Hint                    : XviD
Duration                         : 48mn 18s
Bit rate                         : 1 600 Kbps
Width                            : 720 pixels
Height                           : 400 pixels
Display aspect ratio             : 16:9
Frame rate                       : 25.000 fps
Color space                      : YUV
Chroma subsampling               : 4:2:0
Bit depth                        : 8 bits
Scan type                        : Progressive
Compression mode                 : Lossy
Bits/(Pixel*Frame)               : 0.222
Stream size                      : 553 MiB (89%)
Writing library                  : XviD 73

Audio
ID                               : 1
Format                           : AC-3
Format/Info                      : Audio Coding 3
Mode extension                   : CM (complete main)
Codec ID                         : 2000
Duration                         : 48mn 18s
Bit rate mode                    : Constant
Bit rate                         : 192 Kbps
Channel(s)                       : 2 channels
Channel positions                : Front: L R
Sampling rate                    : 48.0 KHz
Bit depth                        : 16 bits
Compression mode                 : Lossy
Stream size                      : 66.3 MiB (11%)
Alignment                        : Split accross interleaves
Interleave, duration             : 40 ms (1.00 video frame)
Interleave, preload duration     : 500 ms




Скриншоты:
[+] Всего файлов в раздаче - 8:
01.Немедленное реагирование.2019.WEBRip.Files-x.avi622.42 MB
02.Немедленное реагирование.2019.WEBRip.Files-x.avi620.66 MB
03.Немедленное реагирование.2019.WEBRip.Files-x.avi634.08 MB
04.Немедленное реагирование.2019.WEBRip.Files-x.avi628.69 MB
05.Немедленное реагирование.2019.WEBRip.Files-x.avi619.42 MB
06.Немедленное реагирование.2019.WEBRip.Files-x.avi642.39 MB
07.Немедленное реагирование.2019.WEBRip.Files-x.avi619.22 MB
08.Немедленное реагирование.2019.WEBRip.Files-x.avi645.63 MB

Показать еще раздачи по запросу немедленное:
2019-06-08 U Немедленное реагирование [01-10 из 10] (2019) WEBRip от Files-x 6.16 GB ↑ 38 ↓ 49
2019-06-08 U Немедленное реагирование [01-10 из 10] (2019) WEBRip-AVC от Files-x 7.51 GB ↑ 89 ↓ 70
2019-06-08 U Немедленное реагирование [01-10 из 10] (2019) WEBRip 1080p от ExKinoRay 21.10 GB ↑ 29 ↓ 45
2019-06-08 U Немедленное реагирование [01-10 из 10] (2019) WEBRip-AVC от GeneralFilm 5.86 GB ↑ 68 ↓ 39
2019-06-08 U Немедленное реагирование [01-10 из 10] (2019) WEBRip от ExKinoRay 6.83 GB ↑ 36 ↓ 59
2019-06-08 U Немедленное реагирование [01-10 из 10] (2019) WEBRip 720p от ExKinoRay 14.36 GB ↑ 41 ↓ 105
2019-06-08 U Немедленное реагирование [01-10 из 10] (2019) WEBRip от GeneralFilm 5.44 GB ↑ 49 ↓ 83

Отзывы
Зарегистрируйтесь чтобы добавить комментарий.
Обратная связь
Copyleft ©