↑↓Torrent.by
Поиск
Логин: Регистрация
Пароль: Восстановить пароль
Загрузка...

Плохой коп / Jo Pil-ho: The Dawning Rage / Akjilgyeongchal (2019) WEB-DL 1080p | L2

Скачать plohoy-kop-jo-pil-ho-the-dawning-rage-akjilgyeongchal-2019-web-dl-1080p-l2.torrent
U Магнитная ссылка Размер: 4.69 GB Раздают: 77 Качают: 61 Добавлен: 2019-06-07 16:49:48
Плохой коп / Jo Pil-ho: The Dawning Rage / Akjilgyeongchal (2019) WEB-DL 1080p | L2

Название: Плохой коп
Оригинальное название: Akjilgyeongchal / Jo Pil-ho: The Dawning Rage / Bad Police
Год выхода: 2019
Жанр: Боевик, криминал, детектив, триллер
Режиссер: Чжон Бом Ли
В ролях: Сон Гён Ли, Со Ни Чон, Хэ Чжун Пак, Ён Чан Сон, Бён Ын Пак, Хён Гук Им, Мин Чжэ Ким (I), Га Рам Чон, Хан Соль Квон, Ю Ён Ли (I), Хи Джун О

О фильме:
Беспринципный полицейский Чо Пиль-хо не гнушается грязными способами заработка - берёт взятки и даже работает в паре с грабителем. А когда к нему вплотную подбираются детективы из отдела внутренних расследований, Пиль-хо вынуждает своего криминального напарника обчистить полицейский склад вещдоков. Но во время ограбления происходит мощный взрыв и пожар - грабитель погибает, а сам Пиль-хо теряет сознание на месте преступления. Очнувшись в больнице, он узнаёт, что начальник в бешенстве, а отдел внутренних расследований радостно потирает руки, и теперь плохому копу придётся очень сильно постараться, чтобы выкрутиться из этой ситуации.

Страна: Корея Южная
Студия: Dice Film, Generation Blue Films, Sega Sammy Entertainment
Продолжительность: 02:07:48
Перевод: Любительский двухголосый | LakeFilms

Файл
Кодек: AVC
Качество: WEB-DL 1080p | Jo.Pil-ho.The.Dawning.Rage.2019.KOREAN.1080p.NF.WEBRip.DDP5.1.x264-NTG
Видео: MPEG-4 AVC, 4355 Kбит/с, 1920x1080, 23.976 кадр/с
Звук: Релиз без Рекламы!
Аудио #1: Русский (АС3, 2ch, 256 Кбит/с, 48.0 KHz) Любительский (двухголосый, закадровый) LakeFilms
Аудио #2: Корейский (E-АС3, 6ch, 640 Кбит/с, 48.0 KHz)
Субтитры: Русские, английские, испанские, французские, немецкие, итальянские, португальские, польские, турецкие, шведские, финские, норвежские, греческие, иврит, румынские, корейские, китайские | Нетфликс
Трейлер




[+] MediaInfo
Источник: Jo.Pil-ho.The.Dawning.Rage.2019.KOREAN.1080p.NF.WEBRip.DDP5.1.x264-NTG
General
Unique ID                      : 187703926004601293897874665589633668824 (0x8D36760FB4564763B2435FF9A2E356D8)
Complete name                  : Bad.Police.2019.NF.WEB-DL.1080p.mkv
Format                         : Matroska
Format version                 : Version 4
File size                      : 4.69 GiB
Duration                       : 2 h 7 min
Overall bit rate mode          : Variable
Overall bit rate               : 5 254 kb/s
Encoded date                   : UTC 2019-06-07 07:10:10
Writing application            : mkvmerge v7.1.0 ('Good Love') 64bit built on Jul 27 2014 13:06:55
Writing library                : libebml v1.3.0 + libmatroska v1.4.1

Video
ID                             : 1
Format                         : AVC
Format/Info                    : Advanced Video Codec
Format profile                 : High@L4
Format settings                : CABAC / 4 Ref Frames
Format settings, CABAC         : Yes
Format settings, Reference fra : 4 frames
Codec ID                       : V_MPEG4/ISO/AVC
Duration                       : 2 h 7 min
Bit rate mode                  : Variable
Bit rate                       : 4 355 kb/s
Maximum bit rate               : 20.0 Mb/s
Width                          : 1 920 pixels
Height                         : 1 080 pixels
Display aspect ratio           : 16:9
Frame rate mode                : Constant
Frame rate                     : 23.976 (24000/1001) FPS
Color space                    : YUV
Chroma subsampling             : 4:2:0
Bit depth                      : 8 bits
Scan type                      : Progressive
Bits/(Pixel*Frame)             : 0.088
Stream size                    : 3.89 GiB (83%)
Writing library                : x264 core 148 r2715 7e75228
Encoding settings              : cabac=1 / ref=4 / deblock=1:0:0 / analyse=0x3:0x111 / me=umh / subme=10 / psy=1 / psy_rd=1.00:0.00 / mixed_ref=1 / me_range=120 / chroma_me=1 / trellis=2 / 8x8dct=1 / cqm=0 / deadzone=21,11 / fast_pskip=1 / chroma_qp_offset=-2 / threads=8 / lookahead_threads=2 / sliced_threads=0 / nr=0 / decimate=1 / interlaced=0 / bluray_compat=0 / stitchable=1 / constrained_intra=0 / bframes=16 / b_pyramid=2 / b_adapt=2 / b_bias=0 / direct=3 / weightb=1 / open_gop=0 / weightp=2 / keyint=240 / keyint_min=121 / scenecut=0 / intra_refresh=0 / rc_lookahead=240 / rc=crf / mbtree=1 / crf=16.0 / qcomp=0.50 / qpmin=6 / qpmax=51 / qpstep=4 / vbv_maxrate=20000 / vbv_bufsize=25000 / crf_max=0.0 / nal_hrd=vbr / filler=0 / ip_ratio=1.40 / aq=1:0.80
Language                       : Korean
Default                        : Yes
Forced                         : No

Audio #1
ID                             : 2
Format                         : AC-3
Format/Info                    : Audio Coding 3
Commercial name                : Dolby Digital
Codec ID                       : A_AC3
Duration                       : 2 h 7 min
Bit rate mode                  : Constant
Bit rate                       : 256 kb/s
Channel(s)                     : 2 channels
Channel layout                 : L R
Sampling rate                  : 48.0 kHz
Frame rate                     : 31.250 FPS (1536 SPF)
Bit depth                      : 16 bits
Compression mode               : Lossy
Stream size                    : 234 MiB (5%)
Title                          : LakeFilms
Language                       : Russian
Service kind                   : Complete Main
Default                        : Yes
Forced                         : No

Audio #2
ID                             : 3
Format                         : E-AC-3
Format/Info                    : Enhanced AC-3
Commercial name                : Dolby Digital Plus
Codec ID                       : A_EAC3
Duration                       : 2 h 7 min
Bit rate mode                  : Constant
Bit rate                       : 640 kb/s
Channel(s)                     : 6 channels
Channel layout                 : L R C LFE Ls Rs
Sampling rate                  : 48.0 kHz
Frame rate                     : 31.250 FPS (1536 SPF)
Compression mode               : Lossy
Stream size                    : 585 MiB (12%)
Title                          : Korean
Language                       : Korean
Service kind                   : Complete Main
Default                        : No
Forced                         : No

Text #1
ID                             : 4
Format                         : UTF-8
Codec ID                       : S_TEXT/UTF8
Codec ID/Info                  : UTF-8 Plain Text
Duration                       : 2 h 1 min
Bit rate                       : 64 b/s
Count of elements              : 1291
Stream size                    : 57.5 KiB (0%)
Language                       : Russian
Default                        : No
Forced                         : No

Text #2
ID                             : 5
Format                         : UTF-8
Codec ID                       : S_TEXT/UTF8
Codec ID/Info                  : UTF-8 Plain Text
Duration                       : 2 h 1 min
Bit rate                       : 41 b/s
Count of elements              : 1285
Stream size                    : 37.0 KiB (0%)
Language                       : English
Default                        : No
Forced                         : No

Text #3
ID                             : 6
Format                         : UTF-8
Codec ID                       : S_TEXT/UTF8
Codec ID/Info                  : UTF-8 Plain Text
Duration                       : 2 h 1 min
Bit rate                       : 45 b/s
Count of elements              : 1293
Stream size                    : 40.7 KiB (0%)
Language                       : German
Default                        : No
Forced                         : No

Text #4
ID                             : 7
Format                         : UTF-8
Codec ID                       : S_TEXT/UTF8
Codec ID/Info                  : UTF-8 Plain Text
Duration                       : 2 h 1 min
Bit rate                       : 44 b/s
Count of elements              : 1292
Stream size                    : 39.7 KiB (0%)
Language                       : French
Default                        : No
Forced                         : No

Text #5
ID                             : 8
Format                         : UTF-8
Codec ID                       : S_TEXT/UTF8
Codec ID/Info                  : UTF-8 Plain Text
Duration                       : 2 h 1 min
Bit rate                       : 40 b/s
Count of elements              : 1294
Stream size                    : 36.3 KiB (0%)
Language                       : Italian
Default                        : No
Forced                         : No

Text #6
ID                             : 9
Format                         : UTF-8
Codec ID                       : S_TEXT/UTF8
Codec ID/Info                  : UTF-8 Plain Text
Duration                       : 2 h 1 min
Bit rate                       : 43 b/s
Count of elements              : 1290
Stream size                    : 38.7 KiB (0%)
Language                       : Portuguese
Default                        : No
Forced                         : No

Text #7
ID                             : 10
Format                         : UTF-8
Codec ID                       : S_TEXT/UTF8
Codec ID/Info                  : UTF-8 Plain Text
Duration                       : 2 h 1 min
Bit rate                       : 42 b/s
Count of elements              : 1290
Stream size                    : 38.1 KiB (0%)
Title                          : European
Language                       : Spanish
Default                        : No
Forced                         : No

Text #8
ID                             : 11
Format                         : UTF-8
Codec ID                       : S_TEXT/UTF8
Codec ID/Info                  : UTF-8 Plain Text
Duration                       : 2 h 1 min
Bit rate                       : 50 b/s
Count of elements              : 1723
Stream size                    : 44.9 KiB (0%)
Language                       : Czech
Default                        : No
Forced                         : No

Text #9
ID                             : 12
Format                         : UTF-8
Codec ID                       : S_TEXT/UTF8
Codec ID/Info                  : UTF-8 Plain Text
Duration                       : 2 h 1 min
Bit rate                       : 69 b/s
Count of elements              : 1290
Stream size                    : 62.1 KiB (0%)
Language                       : Greek
Default                        : No
Forced                         : No

Text #10
ID                             : 13
Format                         : UTF-8
Codec ID                       : S_TEXT/UTF8
Codec ID/Info                  : UTF-8 Plain Text
Duration                       : 2 h 1 min
Bit rate                       : 40 b/s
Count of elements              : 1290
Stream size                    : 35.8 KiB (0%)
Language                       : Finnish
Default                        : No
Forced                         : No

Text #11
ID                             : 14
Format                         : UTF-8
Codec ID                       : S_TEXT/UTF8
Codec ID/Info                  : UTF-8 Plain Text
Duration                       : 2 h 1 min
Bit rate                       : 60 b/s
Count of elements              : 1294
Stream size                    : 53.6 KiB (0%)
Language                       : Hebrew
Default                        : No
Forced                         : No

Text #12
ID                             : 15
Format                         : UTF-8
Codec ID                       : S_TEXT/UTF8
Codec ID/Info                  : UTF-8 Plain Text
Duration                       : 2 h 1 min
Bit rate                       : 49 b/s
Count of elements              : 1723
Stream size                    : 43.8 KiB (0%)
Language                       : Hungarian
Default                        : No
Forced                         : No

Text #13
ID                             : 16
Format                         : UTF-8
Codec ID                       : S_TEXT/UTF8
Codec ID/Info                  : UTF-8 Plain Text
Duration                       : 2 h 1 min
Bit rate                       : 49 b/s
Count of elements              : 1723
Stream size                    : 44.4 KiB (0%)
Language                       : Indonesian
Default                        : No
Forced                         : No

Text #14
ID                             : 17
Format                         : UTF-8
Codec ID                       : S_TEXT/UTF8
Codec ID/Info                  : UTF-8 Plain Text
Duration                       : 2 h 1 min
Bit rate                       : 43 b/s
Count of elements              : 1430
Stream size                    : 38.5 KiB (0%)
Language                       : Japanese
Default                        : No
Forced                         : No

Text #15
ID                             : 18
Format                         : UTF-8
Codec ID                       : S_TEXT/UTF8
Codec ID/Info                  : UTF-8 Plain Text
Duration                       : 2 h 0 min
Bit rate                       : 64 b/s
Count of elements              : 1278
Stream size                    : 56.8 KiB (0%)
Language                       : Korean
Default                        : No
Forced                         : No

Text #16
ID                             : 19
Format                         : UTF-8
Codec ID                       : S_TEXT/UTF8
Codec ID/Info                  : UTF-8 Plain Text
Duration                       : 2 h 2 min
Bit rate                       : 68 b/s
Count of elements              : 1449
Stream size                    : 61.7 KiB (0%)
Title                          : SDH
Language                       : Korean
Default                        : No
Forced                         : No

Text #17
ID                             : 20
Format                         : UTF-8
Codec ID                       : S_TEXT/UTF8
Codec ID/Info                  : UTF-8 Plain Text
Duration                       : 2 h 1 min
Bit rate                       : 40 b/s
Count of elements              : 1291
Stream size                    : 35.9 KiB (0%)
Language                       : Norwegian Bokmal
Default                        : No
Forced                         : No

Text #18
ID                             : 21
Format                         : UTF-8
Codec ID                       : S_TEXT/UTF8
Codec ID/Info                  : UTF-8 Plain Text
Duration                       : 2 h 1 min
Bit rate                       : 38 b/s
Count of elements              : 1279
Stream size                    : 34.4 KiB (0%)
Language                       : Polish
Default                        : No
Forced                         : No

Text #19
ID                             : 22
Format                         : UTF-8
Codec ID                       : S_TEXT/UTF8
Codec ID/Info                  : UTF-8 Plain Text
Duration                       : 2 h 1 min
Bit rate                       : 46 b/s
Count of elements              : 1291
Stream size                    : 41.6 KiB (0%)
Language                       : Romanian
Default                        : No
Forced                         : No

Text #20
ID                             : 23
Format                         : UTF-8
Codec ID                       : S_TEXT/UTF8
Codec ID/Info                  : UTF-8 Plain Text
Duration                       : 2 h 1 min
Bit rate                       : 41 b/s
Count of elements              : 1293
Stream size                    : 36.9 KiB (0%)
Language                       : Swedish
Default                        : No
Forced                         : No

Text #21
ID                             : 24
Format                         : UTF-8
Codec ID                       : S_TEXT/UTF8
Codec ID/Info                  : UTF-8 Plain Text
Duration                       : 2 h 1 min
Bit rate                       : 43 b/s
Count of elements              : 1291
Stream size                    : 39.0 KiB (0%)
Language                       : Turkish
Default                        : No
Forced                         : No

Text #22
ID                             : 25
Format                         : UTF-8
Codec ID                       : S_TEXT/UTF8
Codec ID/Info                  : UTF-8 Plain Text
Duration                       : 2 h 1 min
Bit rate                       : 44 b/s
Count of elements              : 1294
Stream size                    : 39.2 KiB (0%)
Title                          : Simplified
Language                       : Chinese
Default                        : No
Forced                         : No

Text #23
ID                             : 26
Format                         : UTF-8
Codec ID                       : S_TEXT/UTF8
Codec ID/Info                  : UTF-8 Plain Text
Duration                       : 2 h 1 min
Bit rate                       : 41 b/s
Count of elements              : 1289
Stream size                    : 36.8 KiB (0%)
Title                          : Traditional
Language                       : Chinese
Default                        : No
Forced                         : No



Скриншоты:
[+] Всего файлов в раздаче - 1:
Bad.Police.2019.NF.WEB-DL.1080p.mkv4.69 GB

Показать еще раздачи по запросу плохой:
2019-05-27 U Плохой коп / Jo Pil-ho: The Dawning Rage / Akjilgyeongchal (2019) WEBRip | LakeFilms 971.81 MB ↑ 84 ↓ 23
2019-05-23 U Красивый, плохой, злой / Extremely Wicked, Shockingly Evil and Vile (2019) WEB-DLRip от Scarabey | HDRezka Studio 1.45 GB ↑ 74 ↓ 16
2019-05-22 U Красивый, плохой, злой / Extremely Wicked, Shockingly Evil and Vile (2019) WEB-DLRip от Portablius | P 746.84 MB ↑ 47 ↓ 10
2019-05-21 U Красивый, плохой, злой / Extremely Wicked, Shockingly Evil and Vile (2019) WEB-DLRip-AVC | HDRezka Studio 742.29 MB ↑ 83 ↓ 18
2019-05-20 U Красивый, плохой, злой / Extremely Wicked, Shockingly Evil and Vile (2019) WEB-DLRip от MegaPeer | HDRezka Studio 1.46 GB ↑ 285 ↓ 136
2019-05-20 U Красивый, плохой, злой / Extremely Wicked, Shockingly Evil and Vile (2019) WEB-DLRip-AVC от OlLanDGroup | P 1.46 GB ↑ 265 ↓ 90
2019-05-20 U Красивый, плохой, злой / Extremely Wicked, Shockingly Evil and Vile (2019) WEB-DL 1080p от OlLanDGroup | P 4.40 GB ↑ 462 ↓ 260

Отзывы
Зарегистрируйтесь чтобы добавить комментарий.
Обратная связь
Copyleft ©