↑↓Torrent.by
Поиск
Логин: Регистрация
Пароль: Восстановить пароль
Загрузка...

Немедленное реагирование [01-10 из 10] (2019) WEBRip от GeneralFilm

Скачать nemedlennoe-reagirovanie-01-10-iz-2019-webrip-ot-generalfilm.torrent
U Магнитная ссылка Размер: 5.44 GB Раздают: 49 Качают: 83 Добавлен: 2019-06-08 07:47:18
Немедленное реагирование [01-10 из 10] (2019) WEBRip от GeneralFilm

Оригинальное название: Немедленное реагирование
Год выпуска: 2019
Жанр:  Детектив
Выпущено:  Россия, «Киностудия КИТ»
Режиссер: Владимир Койфман
В ролях: Иван Батарев, Виталий Коваленко, Максим Меркулов, Борис Чистяков, Илья Алексеев, Александр Конев, Елена Радевич, Анна Чурина

О фильме: Капитан полиции Андрей Осокин — командир группы быстрого реагирования одного из районных отделов полиции Санкт-Петербурга. Вместе со своей группой — старшим лейтенантом Алексеем Зуевым и прапорщиком Борисом Порсом — он каждый день выезжает на задания и сталкивается со смертельной опасностью. Один из таких выездов заканчивается перестрелкой, в результате которой один из бойцов погибает, еще один тяжелое ранение. С места происшествия пропадает крупная сумма денег. Осокину удается найти пропавшие деньги, но перед ним встает тяжелый моральный выбор — сдать деньги в полицию или использовать их, чтобы помочь близким.

Качество: WEBRip
Видео: XviD build 73, 720x400 (16:9), ~ 1410 Kbps, 25.000 fps, (~ 0.197 bit/pixel)
Аудио: 48.0 kHz, AC3, 2/0 ch, 192 kbps
Продолжительность: 10 x ~ 00:49:00
Перевод: Не требуется [Русский]
Cубтитры: нет

Релиз:


[+] MediaInfo
General
Complete name               : D:RazdachiNemedlennoe.Reagirovanie.2019.WEBRip.GeneralFilmNemedlennoe.Reagirovanie.e01.avi
Format                      : AVI
Format/Info                 : Audio Video Interleave
File size                   : 557 MiB
Duration                    : 48 min 11 s
Overall bit rate            : 1 617 kb/s
Writing application         : VirtualDubMod 1.5.10.3 | www.virtualdub-fr.org || (build 2550/release)
Writing library             : VirtualDubMod build 2550/release

Video
ID                          : 0
Format                      : MPEG-4 Visual
Format profile              : Advanced Simple@L5
Format settings             : BVOP1 / Custom Matrix
Format settings, BVOP       : 1
Format settings, QPel       : No
Format settings, GMC        : No warppoints
Format settings, Matrix     : Custom
Codec ID                    : XVID
Codec ID/Hint               : XviD
Duration                    : 48 min 11 s
Bit rate                    : 1 415 kb/s
Width                       : 720 pixels
Height                      : 400 pixels
Display aspect ratio        : 16:9
Frame rate                  : 25.000 FPS
Color space                 : YUV
Chroma subsampling          : 4:2:0
Bit depth                   : 8 bits
Scan type                   : Progressive
Compression mode            : Lossy
Bits/(Pixel*Frame)          : 0.197
Stream size                 : 488 MiB (88%)
Writing library             : XviD 73

Audio
ID                          : 1
Format                      : AC-3
Format/Info                 : Audio Coding 3
Commercial name             : Dolby Digital
Codec ID                    : 2000
Duration                    : 48 min 11 s
Bit rate mode               : Constant
Bit rate                    : 192 kb/s
Channel(s)                  : 2 channels
Channel layout              : L R
Sampling rate               : 48.0 kHz
Frame rate                  : 31.250 FPS (1536 SPF)
Bit depth                   : 16 bits
Compression mode            : Lossy
Stream size                 : 66.2 MiB (12%)
Alignment                   : Split accross interleaves
Interleave, duration        : 40  ms (1.00 video frame)
Interleave, preload duratio : 500  ms
Service kind                : Complete Main



Скриншоты:
[+] Всего файлов в раздаче - 10:
Nemedlennoe.Reagirovanie.e01.avi557.21 MB
Nemedlennoe.Reagirovanie.e02.avi557.23 MB
Nemedlennoe.Reagirovanie.e03.avi557.09 MB
Nemedlennoe.Reagirovanie.e04.avi557.15 MB
Nemedlennoe.Reagirovanie.e05.avi557.26 MB
Nemedlennoe.Reagirovanie.e06.avi557.33 MB
Nemedlennoe.Reagirovanie.e07.avi556.99 MB
Nemedlennoe.Reagirovanie.e08.avi557.18 MB
Nemedlennoe.Reagirovanie.e09.avi556.63 MB
Nemedlennoe.Reagirovanie.e10.avi557.19 MB

Показать еще раздачи по запросу немедленное:
2019-06-08 U Немедленное реагирование [01-10 из 10] (2019) WEBRip от Files-x 6.16 GB ↑ 39 ↓ 48
2019-06-08 U Немедленное реагирование [01-10 из 10] (2019) WEBRip-AVC от Files-x 7.51 GB ↑ 68 ↓ 69
2019-06-08 U Немедленное реагирование [01-10 из 10] (2019) WEBRip 1080p от ExKinoRay 21.10 GB ↑ 29 ↓ 45
2019-06-08 U Немедленное реагирование [01-10 из 10] (2019) WEBRip-AVC от GeneralFilm 5.86 GB ↑ 52 ↓ 39
2019-06-08 U Немедленное реагирование [01-10 из 10] (2019) WEBRip от ExKinoRay 6.83 GB ↑ 37 ↓ 58
2019-06-08 U Немедленное реагирование [01-10 из 10] (2019) WEBRip 720p от ExKinoRay 14.36 GB ↑ 41 ↓ 105
2019-06-08 U Немедленное реагирование [01-10 из 10] (2019) SATRip 6.29 GB ↑ 126 ↓ 152

Отзывы
Зарегистрируйтесь чтобы добавить комментарий.
Обратная связь
Copyleft ©