↑↓Torrent.by
Поиск
Логин: Регистрация
Пароль: Восстановить пароль
Загрузка...

Немедленное реагирование [01-10 из 10] (2019) WEBRip-AVC от GeneralFilm

Скачать nemedlennoe-reagirovanie-01-10-iz-2019-webrip-avc-ot-generalfilm.torrent
U Магнитная ссылка Размер: 5.86 GB Раздают: 62 Качают: 39 Добавлен: 2019-06-08 07:47:45
Немедленное реагирование [01-10 из 10] (2019) WEBRip-AVC от GeneralFilm

Год выпуска: 2019
Жанр:  Детектив, криминальный фильм
Выпущено: Россия, Киностудия КИТ по заказу телеканала НТВ
Режиссер: Владимир Койфман
В ролях: Иван Батарев, Илья Алексеев, Максим Меркулов (II), Елена Радевич, Александр Конев, Анна Чурина, Виталий Коваленко, Роман Грибков, Денис Синявский, Андрей Гульнев, Георгий Маришин, Андрей Мокеев, Андрей Полищук, Андрей Аверков, Богдан Псел, Виталий Олечкин, Евгений Покрамович, Кирилл Балобан, Владлена Осичкина, Владимир Маслаков, Андрей Либенсон, Леон Словицкий, Денис Кириллов, Яков Петров, Дмитрий Миков

О фильме: Капитан полиции Александр Осокин — командир группы Немедленного Реагирования. Прибыв на очередной экстренный вызов, группа оказывается под перекрёстным огнём наркоторговцев. В перестрелке получает тяжёлое ранение- прапорщик Порс, а старший лейтенант Зуев — погибает. Ситуация осложняется тем, что с места происшествия пропала сумка с крупной суммой денег. Осокину удаётся найти пропавшие деньги. Но перед ним встаёт моральный выбор: сдать деньги в полицию или использовать их, чтобы помочь близким.

Кодек: h.264
Качество: WEBRip-AVC
Видео: MPEG-4 AVC, ~ 1500 Кбит/с, 720х400, 25 кадр/с
Аудио: Русский (AC3, 2 ch, 192 Кбит/с)
Продолжительность: 10 х ~ 00:48:00
Перевод: Не требуется
Субтитры: нет

Релиз:


[+] MediaInfo

Общее
Уникальный идентификатор                 : 210341550024677811416444714649134219119 (0x9E3E4F18EDCE4E348B7C323E4C6EBF6F)
Полное имя                               : D:Nemedlennoe reagirovanie.WEBRip.(AVC).GeneralFilm1.Nemedlennoe reagirovanie.WEBRip.(AVC).GeneralFilm.mkv
Формат                                   : Matroska
Версия формата                           : Version 2
Размер файла                             : 600 Мбайт
Продолжительность                        : 48 м. 18 с.
Общий поток                              : 1737 Кбит/сек
Дата кодирования                         : UTC 2019-06-03 19:37:02
Программа кодирования                    : mkvmerge v7.8.0 ('River Man') 32bit built on Apr  3 2015 12:11:22
Библиотека кодирования                   : libebml v1.3.1 + libmatroska v1.4.2

Видео
Идентификатор                            : 1
Формат                                   : AVC
Формат/Информация                        : Advanced Video Codec
Профиль формата                          : High@L4.1
Параметр CABAC формата                   : Да
Параметр ReFrames формата                : 9 кадров
Идентификатор кодека                     : V_MPEG4/ISO/AVC
Продолжительность                        : 48 м. 18 с.
Битрейт                                  : 1544 Кбит/сек
Ширина                                   : 720 пикселей
Высота                                   : 400 пикселей
Соотношение сторон                       : 16:9
Режим частоты кадров                     : Постоянный
Частота кадров                           : 25,000 кадров/сек
Цветовое пространство                    : YUV
Субдискретизация насыщенности            : 4:2:0
Битовая глубина                          : 8 бит
Тип развёртки                            : Прогрессивная
Бит/(Пиксели*Кадры)                      : 0.214
Размер потока                            : 522 Мбайт (87%)
Библиотека кодирования                   : x264 core 146 r2538 121396c
Настройки программы                      : cabac=1 / ref=9 / deblock=1:-2:-1 / analyse=0x3:0x113 / me=umh / subme=9 / psy=1 / psy_rd=1.00:0.15 / mixed_ref=1 / me_range=32 / chroma_me=1 / trellis=2 / 8x8dct=1 / cqm=0 / deadzone=21,11 / fast_pskip=0 / chroma_qp_offset=-3 / threads=18 / lookahead_threads=3 / sliced_threads=0 / nr=0 / decimate=1 / interlaced=0 / bluray_compat=0 / constrained_intra=0 / bframes=9 / b_pyramid=2 / b_adapt=2 / b_bias=0 / direct=3 / weightb=1 / open_gop=0 / weightp=2 / keyint=250 / keyint_min=25 / scenecut=40 / intra_refresh=0 / rc_lookahead=40 / rc=2pass / mbtree=0 / bitrate=1544 / ratetol=1.0 / qcomp=0.60 / qpmin=0 / qpmax=69 / qpstep=4 / cplxblur=20.0 / qblur=0.5 / vbv_maxrate=14000 / vbv_bufsize=14000 / nal_hrd=none / filler=0 / ip_ratio=1.40 / pb_ratio=1.30 / aq=2:1.00
Default                                  : Да
Forced                                   : Нет
Цветовой диапазон                        : Limited
Основные цвета                           : BT.709
Характеристики трансфера                 : BT.709
Коэффициенты матрицы                     : BT.709

Аудио
Идентификатор                            : 2
Формат                                   : AC-3
Формат/Информация                        : Audio Coding 3
Расширение режима                        : CM (complete main)
Параметр Endianness формата              : Big
Идентификатор кодека                     : A_AC3
Продолжительность                        : 48 м. 18 с.
Вид битрейта                             : Постоянный
Битрейт                                  : 192 Кбит/сек
Каналы                                   : 2 канала
Расположение каналов                     : Front: L R
Частота                                  : 48,0 КГц
Частота кадров                           : 31,250 кадров/сек (1536 spf)
Битовая глубина                          : 16 бит
Метод сжатия                             : С потерями
Размер потока                            : 66,3 Мбайт (11%)
Default                                  : Да
Forced                                   : Нет

Общее
Полное имя                               : D:Nemedlennoe reagirovanie.WEBRip.(AVC).GeneralFilmNemedlennoe reagirovanie.WEBRip.(AVC).GeneralFilm.torrent
Размер файла                             : 12,2 Кбайт




Скриншоты:
[+] Всего файлов в раздаче - 10:
01.Nemedlennoe reagirovanie.WEBRip.(AVC).GeneralFilm.mkv600.17 MB
02.Nemedlennoe reagirovanie.WEBRip.(AVC).GeneralFilm.mkv600.30 MB
03.Nemedlennoe reagirovanie.WEBRip.(AVC).GeneralFilm.mkv600.18 MB
04.Nemedlennoe reagirovanie.WEBRip.(AVC).GeneralFilm.mkv599.84 MB
05.Nemedlennoe reagirovanie.WEBRip.(AVC).GeneralFilm.mkv600.33 MB
06.Nemedlennoe reagirovanie.WEBRip.(AVC).GeneralFilm.mkv600.10 MB
07.Nemedlennoe reagirovanie.WEBRip.(AVC).GeneralFilm.mkv600.27 MB
08.Nemedlennoe reagirovanie.WEBRip.(AVC).GeneralFilm.mkv600.17 MB
09.Nemedlennoe reagirovanie.WEBRip.(AVC).GeneralFilm.mkv600.53 MB
10.Nemedlennoe reagirovanie.WEBRip.(AVC).GeneralFilm.mkv600.66 MB

Показать еще раздачи по запросу немедленное:
2019-06-08 U Немедленное реагирование [01-10 из 10] (2019) WEBRip от Files-x 6.16 GB ↑ 38 ↓ 49
2019-06-08 U Немедленное реагирование [01-10 из 10] (2019) WEBRip-AVC от Files-x 7.51 GB ↑ 84 ↓ 70
2019-06-08 U Немедленное реагирование [01-10 из 10] (2019) WEBRip 1080p от ExKinoRay 21.10 GB ↑ 29 ↓ 45
2019-06-08 U Немедленное реагирование [01-10 из 10] (2019) WEBRip от ExKinoRay 6.83 GB ↑ 36 ↓ 59
2019-06-08 U Немедленное реагирование [01-10 из 10] (2019) WEBRip 720p от ExKinoRay 14.36 GB ↑ 41 ↓ 105
2019-06-08 U Немедленное реагирование [01-10 из 10] (2019) WEBRip от GeneralFilm 5.44 GB ↑ 49 ↓ 83
2019-06-08 U Немедленное реагирование [01-10 из 10] (2019) SATRip 6.29 GB ↑ 128 ↓ 152

Отзывы
Зарегистрируйтесь чтобы добавить комментарий.
Обратная связь
Copyleft ©