↑↓Torrent.by
Поиск
Логин: Регистрация
Пароль: Восстановить пароль
Загрузка...

Серые волки (1993) DVDRip-AVC от KORSAR

Скачать serye-volki-1993-dvdrip-avc-ot-korsar.torrent
U Магнитная ссылка Размер: 2.23 GB Раздают: 38 Качают: 16 Добавлен: 2019-06-08 07:47:49
Серые волки (1993) DVDRip-AVC от KORSAR

Название: Серые волки
Год выхода: 1993
Жанр:  Боевик, детектив, биография, история
Режиссер: Игорь Гостев
В ролях: Ролан Быков, Владимир Самойлов, Лев Дуров, Петр Вельяминов, Александр Белявский, Богдан Ступка, Александр Мохов, Александра Захарова, Александр Потапов, Геннадий Сайфулин, Владимир Трошин, Евгений Жариков, Виктор Сергачев

О фильме: Последний фильм мастера политического детектива Игоря Гостева рассказывает, как в 1964 году партийно-государственной номенклатуре удалось избавиться от Н. С. Хрущева. Параллельно с исторической хроникой развивается драматическая история человека, попытавшегося раскрыть тайну заговора и остановить развитие событий.

Страна: Россия
Студия: Мосфильм
Продолжительность: 01:48:09
Перевод: Не требуется

Файл
Кодек: х264
Качество: DVDRip-AVC
Видео: MPEG-4 AVC, 718x576@765x576, 25.000 fps, 2500 Кбит/с
Аудио: AC3, 6 ch, 448 Кбит/с
Субтитры: Нет
Навигация по главам: Есть

Релиз:
[+] MediaInfo
Общее
Уникальный идентификатор                 : 185483622957319208848815304666381080753 (0x8B8AD8AB5B462139A33A7486039CD8B1)
Полное имя                               : Серые волки_1993-DVDRip-AVC.KORSAR.mkv
Формат                                   : Matroska
Версия формата                           : Version 2
Размер файла                             : 2,23 Гбайт
Продолжительность                        : 1 ч. 48 м.
Общий поток                              : 2949 Кбит/сек
Дата кодирования                         : UTC 2016-08-25 09:54:21
Программа кодирования                    : mkvmerge v5.8.0 ('No Sleep / Pillow') built on Sep  2 2012 15:37:04
Библиотека кодирования                   : libebml v1.2.3 + libmatroska v1.3.0

Видео
Идентификатор                            : 1
Формат                                   : AVC
Формат/Информация                        : Advanced Video Codec
Профиль формата                          : High@L4.1
Параметр CABAC формата                   : Да
Параметр RefFrames формата               : 14 кадров
Идентификатор кодека                     : V_MPEG4/ISO/AVC
Продолжительность                        : 1 ч. 48 м.
Битрейт                                  : 2500 Кбит/сек
Ширина                                   : 718 пикселей
Высота                                   : 576 пикселей
Соотношение сторон                       : 4:3
Соотношение сторон в оригинале           : 4:3
Режим частоты кадров                     : Постоянный
Частота кадров                           : 25,000 кадров/сек
Цветовое пространство                    : YUV
Субдискретизация насыщенности            : 4:2:0
Битовая глубина                          : 8 бит
Тип развёртки                            : Прогрессивная
Бит/(Пиксели*Кадры)                      : 0.242
Размер потока                            : 1,85 Гбайт (83%)
Заголовок                                : Серые волки_1993-DVDRip-AVC.KORSAR
Библиотека кодирования                   : x264 core 148 r2638 7599210
Настройки программы                      : cabac=1 / ref=14 / deblock=1:-2:-2 / analyse=0x3:0x133 / me=umh / subme=10 / psy=1 / psy_rd=1.05:0.10 / mixed_ref=1 / me_range=32 / chroma_me=1 / trellis=2 / 8x8dct=1 / cqm=0 / deadzone=21,11 / fast_pskip=0 / chroma_qp_offset=-3 / threads=12 / lookahead_threads=2 / sliced_threads=0 / nr=0 / decimate=0 / interlaced=0 / bluray_compat=0 / constrained_intra=0 / bframes=9 / b_pyramid=2 / b_adapt=2 / b_bias=0 / direct=3 / weightb=1 / open_gop=0 / weightp=2 / keyint=250 / keyint_min=25 / scenecut=40 / intra_refresh=0 / rc_lookahead=40 / rc=2pass / mbtree=0 / bitrate=2500 / ratetol=1.0 / qcomp=0.63 / qpmin=0 / qpmax=39 / qpstep=4 / cplxblur=20.0 / qblur=0.5 / vbv_maxrate=50000 / vbv_bufsize=62500 / nal_hrd=none / filler=0 / ip_ratio=1.15 / pb_ratio=1.30 / aq=2:1.00
Язык                                     : English
Default                                  : Да
Forced                                   : Нет
Цветовой диапазон                        : Limited
Основные цвета                           : BT.601 PAL
Характеристики трансфера                 : BT.470 System B, BT.470 System G
Коэффициенты матрицы                     : BT.601

Аудио
Идентификатор                            : 2
Формат                                   : AC-3
Формат/Информация                        : Audio Coding 3
Параметр Endianness формата              : Big
Идентификатор кодека                     : A_AC3
Продолжительность                        : 1 ч. 48 м.
Вид битрейта                             : Постоянный
Битрейт                                  : 448 Кбит/сек
Каналы                                   : 6 каналов
Расположение каналов                     : Front: L C R, Side: L R, LFE
Частота                                  : 48,0 КГц
Частота кадров                           : 31,250 кадров/сек (1536 SPF)
Битовая глубина                          : 16 бит
Метод сжатия                             : С потерями
Размер потока                            : 347 Мбайт (15%)
Язык                                     : Russian
Default                                  : Да
Forced                                   : Нет

Меню
00:00:00.000                             : ru:Chapter 1
00:07:02.680                             : ru:Chapter 2
00:15:12.400                             : ru:Chapter 3
00:23:05.040                             : ru:Chapter 4
00:31:39.240                             : ru:Chapter 5
00:38:45.520                             : ru:Chapter 6
00:44:35.920                             : ru:Chapter 7
00:50:25.840                             : ru:Chapter 8
00:55:39.960                             : ru:Chapter 9
01:02:28.240                             : ru:Chapter 10
01:07:38.280                             : ru:Chapter 11
01:15:26.720                             : ru:Chapter 12
01:22:39.880                             : ru:Chapter 13
01:28:20.560                             : ru:Chapter 14
01:40:32.840                             : ru:Chapter 15
01:48:09.280                             : ru:Chapter 16



Скриншоты:
[+] Всего файлов в раздаче - 1:
Серые волки_1993-DVDRip-AVC.mkv2.23 GB

Похожие раздачи по запросу - серые:
2015-07-30 U Серые / Grays (2013) WebRip 1080p | L 79.24 MB ↑ 250 ↓ 13

Отзывы
Зарегистрируйтесь чтобы добавить комментарий.
Обратная связь
Copyleft ©