↑↓Torrent.by
Поиск
Логин: Регистрация
Пароль: Восстановить пароль
Загрузка...

Свой среди чужих, чужой среди своих (1974) HDTV 1080i

Скачать svoy-sredi-chuzhih-chuzhoy-svoih-1974-hdtv-1080i.torrent
U Магнитная ссылка Размер: 4.70 GB Раздают: 35 Качают: 19 Добавлен: 2019-06-08 07:48:19
Свой среди чужих, чужой среди своих  (1974) HDTV 1080i

Цифровая реставрация изображения и звука выполнены Киноконцерном "Мосфильм"

Название: Свой среди чужих, чужой среди своих
Год выпуска: 1974
Жанр:  Боевик, драма
Режиссёр: Никита Михалков
В ролях: Юрий Богатырёв, Анатолий Солоницын, Сергей Шакуров, Александр Пороховщиков, Николай Пастухов, Александр Кайдановский, Никита Михалков, Николай Засухин, Александр Калягин, Константин Райкин, Александр Яковлев, Борис Галкин, Юрий Кузнецов, Екатерина Шадрина, Михаил Кислов, Виталий Комиссаров, Анатолий Борисов, Геннадий Крашенинников

Описание:
Действие этого психологического «вестерна» происходит в 20-е годы в маленьком губернском городке на юге России. Гражданская война кончилась, но до полной победы большевиков еще далеко. Группа бандитов из бывших белых офицеров грабит поезд с золотом, на которое нужно было купить хлеб для голодающих, и пятеро друзей, бывших красных бойцов, вступают с ними в смертельную схватку.

Получается так, что подозрение в предательстве падает на одного из них (первая роль Богатырева в полнометражном кино), и, сбежав от товарищей, он один должен вернуть золото, чтобы доказать свою невиновность.

Страна: СССР
Студия: Мосфильм
Продолжительность: 1:32:15
Язык: Русский

Файл
Формат: MPEG-TS
Качество: HDTV 1080i
Видео: 1920x1080 (16:9), 25 fps, MPEG-4 AVC ~ 6742 Кbps avg, 0.130 bit/pixel
Звук:  МР2, 48 kHz, 2 ch, ~192.00 kbps avg | русский |

Субтитры: Отсутствуют


[+] Инфо-файл
Общее
Идентификатор                            : 1 (0x1)
Полное имя                               : Свой среди чужих, чужой среди своих.ts
Формат                                   : MPEG-TS
Размер файла                             : 4,70 Гбайт
Продолжительность                        : 1 ч. 32 м.
Режим общего битрейта                    : Переменный
Общий поток                              : 7297 Кбит/сек

Видео
Идентификатор                            : 201 (0xC9)
Идентификатор меню                       : 1 (0x1)
Формат                                   : AVC
Формат/Информация                        : Advanced Video Codec
Профиль формата                          : High@L4
Настройки формата                        : CABAC / 4 Ref Frames
Параметр CABAC формата                   : Да
Параметр RefFrames формата               : 4 кадра
Идентификатор кодека                     : 27
Продолжительность                        : 1 ч. 32 м.
Битрейт                                  : 6742 Кбит/сек
Ширина                                   : 1920 пикселей
Высота                                   : 1080 пикселей
Соотношение сторон                       : 16:9
Частота кадров                           : 25,000 кадров/сек
Стандарт вещания                         : Component
Цветовое пространство                    : YUV
Субдискретизация насыщенности            : 4:2:0
Битовая глубина                          : 8 бит
Тип развёртки                            : Чересстрочная
Метод сохранения типа развёртки          : Раздельные поля
Порядок развёртки                        : Верхнее поле первое
Бит/(Пиксели*Кадры)                      : 0.130
Размер потока                            : 4,34 Гбайт (92%)
Цветовой диапазон                        : Limited
Основные цвета                           : BT.709
Характеристики трансфера                 : BT.709
Коэффициенты матрицы                     : BT.709

Аудио
Идентификатор                            : 301 (0x12D)
Идентификатор меню                       : 1 (0x1)
Формат                                   : MPEG Audio
Версия формата                           : Version 1
Профиль формата                          : Layer 2
Идентификатор кодека                     : 3
Продолжительность                        : 1 ч. 32 м.
Вид битрейта                             : Постоянный
Битрейт                                  : 192 Кбит/сек
Каналы                                   : 2 канала
Частота                                  : 48,0 КГц
Частота кадров                           : 41,667 кадра/сек (1152 SPF)
Метод сжатия                             : С потерями
Размер потока                            : 127 Мбайт (3%)
Язык                                     : Russian



Скриншоты:
[+] Всего файлов в раздаче - 1:
Свой среди чужих, чужой среди своих.ts4.70 GB

Показать еще раздачи по запросу свой:
2019-03-22 U Пригласи дьявола в свой дом / Пока Дьявол не позовёт / Sebelum Iblis Menjemput (2018) WEBRip | Baibako 1.29 GB ↑ 153 ↓ 25
2019-03-13 U Чарльз Спендер - Сделай свой компьютер стабильнее и быстрее: Что Майкрософт забыла вам сказать (2019) FB2, RTF 30.90 MB ↑ 649 ↓ 75
2018-09-18 U Александр Андрианов - Убей свой страх! (2016) FB2 626.16 kB ↑ 114 ↓ 3
2018-06-29 U Сергей Козорез - Тайна власти над людьми. Как понимать себя, влиять на других и найти свой путь к мечте (2018) PDF, FB2, RTF 38.90 MB ↑ 773 ↓ 28
2017-12-15 U Свой парень (1974) DVDRip-AVC от KORSAR 1К1.32 GB ↑ 34 ↓ 15
2017-07-27 U Гичев Юрий - Нахальная калория. Как раскрутить свой базовый метаболизм (2017) FB2 704.57 kB ↑ 333 ↓ 5
2017-04-18 U Андрей Курганов - Спаси свой компьютер 2.0. Видеокурс (2016) PCRec 1К2.22 GB ↑ 1082 ↓ 23

Отзывы
rehjxrfhz,f
Напустили туману - контраста мало. Да ещё логотип окаянный. По контрастности картинка проигрывает рипу Филби.

Зарегистрируйтесь чтобы добавить комментарий.
Обратная связь
Copyleft ©