↑↓Torrent.by
Поиск
Логин: Регистрация
Пароль: Восстановить пароль
Загрузка...

Правдивая ложь / True Lies (1994) WEB-DLRip 720p от SuperMin | D, P | Open Matte

Скачать pravdivaya-lozh-true-lies-1994-web-dlrip-720p-ot-supermin-d-p-open-matte.torrent
U Магнитная ссылка Размер: 5.90 GB Раздают: 41 Качают: 20 Добавлен: 2019-06-08 13:49:44
Правдивая ложь / True Lies (1994) WEB-DLRip 720p от SuperMin | D, P | Open Matte

Название: Правдивая ложь
Оригинальное название: True Lies
Год выпуска: 1994
Жанр:  Боевик, триллер
Режиссер: Джеймс Кэмерон
В ролях:Арнольд Шварценеггер, Джейми Ли Кёртис, Том Арнольд, Билл Пэкстон, Тиа Каррере, Арт Малик, Элиза Душку, Грант Хеслов, Чарлтон Хестон, Маршалл Манеш, Джеймс Аллен, Дитер Раутер, Джейн Моррис, Кэтси Чаппель, Кристина Уайлер, Офер Самра, Пол Барселу, Чарльз А. Тамбурро, Жан-Клод Парашини, Узи Гал, Маджед Ибрахим, Армен Ксаджикян, Майк Акрави, Майк Кэмерон, Чарльз Крэгин, Луай Мардини, Джино Сальвано, Скотт Дотсон, Том Исбелл, Джон Бруно, Такао Комине

Для своей семьи Гарри Таскер — любящий муж и отец, человек скромный и рассеянный, обыкновенный продавец компьютеров, «не вылезающий» с работы ни днем, ни ночью. Но лишь немногие знают, что на самом деле Гарри — специальный агент тайной правительственной службы, специализирующийся на особо опасных заданиях, владеющий кучей языков, всеми видами оружия и всеми возможными способами «отправки» злодеев на тот свет.

Страна: США
Студия: Twentieth Century Fox Film Corporation, Lightstorm Entertainment
Продолжительность: 02:20:48
Перевод: Дубляж + Профессиональный (многоголосый закадровый) Superbit + R5

Файл
Кодек: H.264
Качество: WEB-DLRip 720 от SuperMin
Видео: 1280x720 (16:9), 4009 kbps, 23.976 fps
Звук: Русский (AC3, 6 ch, 448 Кбит/с) - Дубляж
Русский (AC3, 6 ch, 448 Кбит/с) - Superbit
Русский (AC3, 6 ch, 448 Кбит/с) - R5
Английский (AC-3, 6ch, 640 kbps)
Субтитры: Русские, английские

Периодически появляется логотип STARZ


[+] MI
General
Unique ID                   : 325320394456214286465209108615240564915 (0xF4BE6DCDB8ABEC093A4F8807944740B3)
Complete name               : H:ФИЛЬМЫПравдивая ложь (Open Mate).mkv
Format                      : Matroska
Format version              : Version 4
File size                   : 5.90 GiB
Duration                    : 2 h 20 min
Overall bit rate            : 5 997 kb/s
Movie name                  : Правдивая ложь / True Lies (1994) (Open Mate) - #LORDKILL#
Encoded date                : UTC 2019-06-07 15:45:05
Writing application         : mkvmerge v21.0.0 ('Tardigrades Will Inherit The Earth') 64-bit
Writing library             : libebml v1.3.5 + libmatroska v1.4.8

Video
ID                          : 1
Format                      : AVC
Format/Info                 : Advanced Video Codec
Format profile              : High@L4.1
Format settings             : CABAC / 9 Ref Frames
Format settings, CABAC      : Yes
Format settings, Reference  : 9 frames
Codec ID                    : V_MPEG4/ISO/AVC
Duration                    : 2 h 20 min
Bit rate                    : 4 009 kb/s
Width                       : 1 280 pixels
Height                      : 720 pixels
Display aspect ratio        : 16:9
Frame rate mode             : Constant
Frame rate                  : 23.976 (24000/1001) FPS
Color space                 : YUV
Chroma subsampling          : 4:2:0
Bit depth                   : 8 bits
Scan type                   : Progressive
Bits/(Pixel*Frame)          : 0.181
Stream size                 : 3.95 GiB (67%)
Writing library             : x264 core 146 r2538 121396c
Encoding settings           : cabac=1 / ref=9 / deblock=1:-2:-2 / analyse=0x3:0x113 / me=umh / subme=11 / psy=1 / psy_rd=1.00:0.15 / mixed_ref=1 / me_range=32 / chroma_me=1 / trellis=2 / 8x8dct=1 / cqm=0 / deadzone=21,11 / fast_pskip=0 / chroma_qp_offset=-3 / threads=12 / lookahead_threads=2 / sliced_threads=0 / nr=0 / decimate=1 / interlaced=0 / bluray_compat=0 / constrained_intra=0 / bframes=7 / b_pyramid=2 / b_adapt=2 / b_bias=0 / direct=1 / weightb=1 / open_gop=0 / weightp=2 / keyint=240 / keyint_min=23 / scenecut=40 / intra_refresh=0 / rc=crf / mbtree=0 / crf=19.5 / qcomp=0.60 / qpmin=0 / qpmax=69 / qpstep=4 / ip_ratio=1.40 / pb_ratio=1.30 / aq=1:1.00
Default                     : Yes
Forced                      : No

Audio #1
ID                          : 2
Format                      : AC-3
Format/Info                 : Audio Coding 3
Commercial name             : Dolby Digital
Codec ID                    : A_AC3
Duration                    : 2 h 20 min
Bit rate mode               : Constant
Bit rate                    : 448 kb/s
Channel(s)                  : 6 channels
Channel layout              : L R C LFE Ls Rs
Sampling rate               : 48.0 kHz
Frame rate                  : 31.250 FPS (1536 SPF)
Bit depth                   : 16 bits
Compression mode            : Lossy
Stream size                 : 452 MiB (7%)
Title                       : Дубляж
Language                    : Russian
Service kind                : Complete Main
Default                     : No
Forced                      : No

Audio #2
ID                          : 3
Format                      : AC-3
Format/Info                 : Audio Coding 3
Commercial name             : Dolby Digital
Codec ID                    : A_AC3
Duration                    : 2 h 20 min
Bit rate mode               : Constant
Bit rate                    : 448 kb/s
Channel(s)                  : 6 channels
Channel layout              : L R C LFE Ls Rs
Sampling rate               : 48.0 kHz
Frame rate                  : 31.250 FPS (1536 SPF)
Bit depth                   : 16 bits
Compression mode            : Lossy
Stream size                 : 452 MiB (7%)
Title                       : MVO (Superbit/Kinomania/FDV)
Language                    : Russian
Service kind                : Complete Main
Default                     : Yes
Forced                      : No

Audio #3
ID                          : 4
Format                      : AC-3
Format/Info                 : Audio Coding 3
Commercial name             : Dolby Digital
Codec ID                    : A_AC3
Duration                    : 2 h 20 min
Bit rate mode               : Constant
Bit rate                    : 448 kb/s
Channel(s)                  : 6 channels
Channel layout              : L R C LFE Ls Rs
Sampling rate               : 48.0 kHz
Frame rate                  : 31.250 FPS (1536 SPF)
Bit depth                   : 16 bits
Compression mode            : Lossy
Stream size                 : 452 MiB (7%)
Title                       : MVO (R5, Lizard)
Language                    : Russian
Service kind                : Complete Main
Default                     : No
Forced                      : No

Audio #4
ID                          : 5
Format                      : E-AC-3
Format/Info                 : Enhanced AC-3
Commercial name             : Dolby Digital Plus
Codec ID                    : A_EAC3
Duration                    : 2 h 20 min
Bit rate mode               : Constant
Bit rate                    : 640 kb/s
Channel(s)                  : 6 channels
Channel layout              : L R C LFE Ls Rs
Sampling rate               : 48.0 kHz
Frame rate                  : 31.250 FPS (1536 SPF)
Compression mode            : Lossy
Stream size                 : 645 MiB (11%)
Title                       : Original (WEBRip)
Language                    : English
Service kind                : Complete Main
Default                     : No
Forced                      : No

Text #1
ID                          : 6
Format                      : UTF-8
Codec ID                    : S_TEXT/UTF8
Codec ID/Info               : UTF-8 Plain Text
Duration                    : 2 h 17 min
Bit rate                    : 69 b/s
Count of elements           : 1142
Stream size                 : 69.5 KiB (0%)
Title                       : R5, Lizard
Language                    : Russian
Default                     : No
Forced                      : No

Text #2
ID                          : 7
Format                      : UTF-8
Codec ID                    : S_TEXT/UTF8
Codec ID/Info               : UTF-8 Plain Text
Duration                    : 2 h 19 min
Bit rate                    : 77 b/s
Count of elements           : 1333
Stream size                 : 78.9 KiB (0%)
Title                       : R5, 20th Century Fox
Language                    : Russian
Default                     : No
Forced                      : No

Text #3
ID                          : 8
Format                      : UTF-8
Codec ID                    : S_TEXT/UTF8
Codec ID/Info               : UTF-8 Plain Text
Duration                    : 2 h 19 min
Bit rate                    : 82 b/s
Count of elements           : 1776
Stream size                 : 84.6 KiB (0%)
Title                       : Kinomania SDH
Language                    : Russian
Default                     : No
Forced                      : No

Text #4
ID                          : 9
Format                      : UTF-8
Codec ID                    : S_TEXT/UTF8
Codec ID/Info               : UTF-8 Plain Text
Duration                    : 2 h 19 min
Bit rate                    : 45 b/s
Count of elements           : 1873
Stream size                 : 46.8 KiB (0%)
Title                       : DTheater
Language                    : English
Default                     : No
Forced                      : No

Text #5
ID                          : 10
Format                      : UTF-8
Codec ID                    : S_TEXT/UTF8
Codec ID/Info               : UTF-8 Plain Text
Duration                    : 2 h 17 min
Bit rate                    : 48 b/s
Count of elements           : 1310
Stream size                 : 49.0 KiB (0%)
Title                       : R5, 20th Century Fox
Language                    : English
Default                     : No
Forced                      : No

Text #6
ID                          : 11
Format                      : UTF-8
Codec ID                    : S_TEXT/UTF8
Codec ID/Info               : UTF-8 Plain Text
Duration                    : 2 h 14 min
Bit rate                    : 45 b/s
Count of elements           : 1265
Stream size                 : 45.1 KiB (0%)
Title                       : R2, Universal
Language                    : English
Default                     : No
Forced                      : No

Menu
00:00:00.000                : en:Main Titles
00:01:22.591                : en:Lake Chapeau
00:09:12.694                : en:Tango
00:11:33.902                : en:Here's My Invitation
00:14:39.721                : en:That's It for Mr. Renquist
00:16:27.462                : en:The Tasker Family
00:19:09.824                : en:Not Just a River in Egypt
00:20:36.978                : en:Omega Sector/You Know Harry
00:23:40.161                : en:The Renquist Front
00:27:20.514                : en:The Problem with Terrorists
00:29:45.459                : en:Bathroom Fight
00:32:12.239                : en:My Horse Is Getting Tired
00:40:57.864                : en:A Great Birthday
00:42:48.441                : en:Welcom to the Club
00:46:01.901                : en:A Little Excitement
00:50:17.223                : en:Simon's "Op"
00:52:48.908                : en:One Born Every Minute
00:56:54.253                : en:Seek Help, Harry
00:59:01.380                : en:A Misappropriation of Sector Resources
01:00:30.703                : en:Safe House
01:05:11.683                : en:Helen Looking in the Glass
01:13:24.742                : en:The End of Carlos the Jackal
01:15:19.357                : en:An Envelope Marked Doris
01:19:20.998                : en:The Suite at the Marquis
01:27:21.078                : en:Tasker, Not Renquist
01:29:10.220                : en:The Four Horsemen
01:35:12.382                : en:Truth Agent
01:40:32.869                : en:I Married Rambo
01:42:27.116                : en:Uh-Oh
01:44:32.742                : en:Just Us
01:50:31.734                : en:I Thought This Looked Like Your Work
01:51:37.066                : en:Bright Boy Alert
01:54:02.444                : en:Time to Kick Ass
01:55:25.361                : en:Limo Rescue
01:59:52.661                : en:Nuclear Kiss
02:01:12.641                : en:Borrowing a Harrier
02:03:36.351                : en:Dana the Hostage/a Man Inside
02:04:51.526                : en:Who's Taken the Key?
02:06:43.972                : en:On the Crane
02:07:37.592                : en:A Crimson Jihad
02:08:21.636                : en:Dad?!
02:11:28.189                : en:Fired
02:14:14.021                : en:Boris and Doris
02:16:55.416                : en:End Titles



Скриншоты:
[+] Всего файлов в раздаче - 1:
Правдивая ложь (Open Mate).mkv5.90 GB

Показать еще раздачи по запросу правдивая:
2018-03-01 U Правдивая ложь / True Lies (1994) WEBRip-AVC от ExKinoRay | Open Matte | D, P 1.45 GB ↑ 109 ↓ 8
2016-05-23 U Каджаки: Правдивая история / Kajaki (2014) HDRip | L2 1.37 GB ↑ 88 ↓ 20
2016-04-09 U Робин Гуд, правдивая история / Robin des Bois, la véritable histoire (2015) BDRip 1080p | L2 6.79 GB ↑ 506 ↓ 100
2016-04-09 U Робин Гуд, правдивая история / Robin des Bois, la véritable histoire (2015) HDRip | L2 1К1.45 GB ↑ 537 ↓ 79
2015-11-04 U Правдивая история / True Story (2015) BDRip-AVC от HELLYWOOD | iTunes 2.14 GB ↑ 124 ↓ 17
2015-09-30 U Правдивая история / True Story (2014) BDRip 720p | iTunes 7.09 GB ↑ 140 ↓ 104
2015-08-04 U Каджаки: Правдивая история / Kajaki (2014) BDRip-AVC от ExKinoRay | L2 2.21 GB ↑ 140 ↓ 129

Отзывы
Зарегистрируйтесь чтобы добавить комментарий.
Обратная связь
Copyleft ©