↑↓Torrent.by
Поиск
Логин: Регистрация
Пароль: Восстановить пароль
Загрузка...

Пятнадцать минут войны / 15 Minutes of War / L'Intervention (2019) BDRip 1080p | L2

Скачать pyatnadcat-minut-voyny-15-minutes-of-war-l-intervention-2019-bdrip-1080p-l2.torrent
U Магнитная ссылка Размер: 6.73 GB Раздают: 57 Качают: 85 Добавлен: 2019-06-08 15:55:27
Пятнадцать минут войны / 15 Minutes of War / L'Intervention (2019) BDRip 1080p | L2

Название: Пятнадцать минут войны
Оригинальное название: 15 Minutes of War / L'Intervention
Год выхода: 2019
Жанр: Боевик, драма, военный, история
Режиссер: Фред Гривуа
В ролях: Альбан Ленуар, Ольга Куриленко, Себастьян Лаланн, Давид Муржиа, Микаэль Абитбуль, Гийом Лаббе, Бен Кура, Венсан Перес, Жозиан Баласко, Кевин Лэйн

О фильме:
1976 год. Сомалийские мятежники угоняют школьный автобус, пассажиры которого — 21 французский ученик и американский учитель, и увозят его к нейтральной зоне на границе между французской колонией и Сомали. Французский капитан Андре Жерваль получает задание возглавить команду снайперов для оперативного спасения заложников. Когда переговоры терпят неудачу, Жерваль и его ребята становятся единственными, кто может спасти их жизнь.

Страна: Франция, Бельгия
Студия: SND Groupe M6, Versus Production, C8 Films
Продолжительность: 01:38:24
Перевод: Любительский двухголосый | LakeFilms

Файл
Кодек: x.264
Качество: BDRip 1080p
Видео: MPEG-4 AVC, 8033 Kбит/с, 1920x808, 24.000 кадр/с
Звук: Релиз без Рекламы!
Аудио #1: Русский (АС3, 2ch, 256 Кбит/с, 48.0 KHz) Любительский (двухголосый, закадровый) LakeFilms
Аудио #2: Французский (DTS, 6ch, 1509 Кбит/с, 48.0 KHz)
Субтитры: Французские
Трейлер




[+] MediaInfo
Источник: L.Intervention.2019.FRENCH.1080p.BluRay.DTS.x264-UTT
General
Unique ID                      : 176404371889404715378538014740653095464 (0x84B63F07E5DDE36E8D8C123ECB153A28)
Complete name                  : L.Intervention.2019.BDRip.1080p.mkv
Format                         : Matroska
Format version                 : Version 4
File size                      : 6.73 GiB
Duration                       : 1 h 38 min
Overall bit rate               : 9 795 kb/s
Encoded date                   : UTC 2019-06-08 00:15:29
Writing application            : mkvmerge v7.1.0 ('Good Love') 64bit built on Jul 27 2014 13:06:55
Writing library                : libebml v1.3.0 + libmatroska v1.4.1

Video
ID                             : 1
Format                         : AVC
Format/Info                    : Advanced Video Codec
Format profile                 : High@L4.1
Format settings                : CABAC / 5 Ref Frames
Format settings, CABAC         : Yes
Format settings, Reference fra : 5 frames
Codec ID                       : V_MPEG4/ISO/AVC
Duration                       : 1 h 38 min
Bit rate                       : 8 033 kb/s
Width                          : 1 920 pixels
Height                         : 808 pixels
Display aspect ratio           : 2.40:1
Frame rate mode                : Constant
Frame rate                     : 24.000 FPS
Color space                    : YUV
Chroma subsampling             : 4:2:0
Bit depth                      : 8 bits
Scan type                      : Progressive
Bits/(Pixel*Frame)             : 0.216
Stream size                    : 5.52 GiB (82%)
Writing library                : x264 core 155 r2901 7d0ff22
Encoding settings              : cabac=1 / ref=5 / deblock=1:-3:-3 / analyse=0x3:0x113 / me=umh / subme=10 / psy=1 / psy_rd=1.00:0.00 / mixed_ref=1 / me_range=24 / chroma_me=1 / trellis=2 / 8x8dct=1 / cqm=0 / deadzone=21,11 / fast_pskip=1 / chroma_qp_offset=-2 / threads=24 / lookahead_threads=4 / sliced_threads=0 / nr=0 / decimate=1 / interlaced=0 / bluray_compat=0 / constrained_intra=0 / bframes=8 / b_pyramid=2 / b_adapt=2 / b_bias=0 / direct=3 / weightb=1 / open_gop=0 / weightp=2 / keyint=240 / keyint_min=24 / scenecut=40 / intra_refresh=0 / rc_lookahead=60 / rc=2pass / mbtree=1 / bitrate=8033 / ratetol=1.0 / qcomp=0.60 / qpmin=0 / qpmax=69 / qpstep=4 / cplxblur=20.0 / qblur=0.5 / ip_ratio=1.40 / aq=1:1.00
Language                       : French
Default                        : Yes
Forced                         : No
Color range                    : Limited
Color primaries                : BT.709
Transfer characteristics       : BT.709
Matrix coefficients            : BT.709

Audio #1
ID                             : 2
Format                         : AC-3
Format/Info                    : Audio Coding 3
Commercial name                : Dolby Digital
Codec ID                       : A_AC3
Duration                       : 1 h 38 min
Bit rate mode                  : Constant
Bit rate                       : 256 kb/s
Channel(s)                     : 2 channels
Channel layout                 : L R
Sampling rate                  : 48.0 kHz
Frame rate                     : 31.250 FPS (1536 SPF)
Bit depth                      : 16 bits
Compression mode               : Lossy
Stream size                    : 180 MiB (3%)
Title                          : LakeFilms
Language                       : Russian
Service kind                   : Complete Main
Default                        : Yes
Forced                         : No

Audio #2
ID                             : 3
Format                         : DTS
Format/Info                    : Digital Theater Systems
Codec ID                       : A_DTS
Duration                       : 1 h 38 min
Bit rate mode                  : Constant
Bit rate                       : 1 509 kb/s
Channel(s)                     : 6 channels
Channel layout                 : C L R Ls Rs LFE
Sampling rate                  : 48.0 kHz
Frame rate                     : 93.750 FPS (512 SPF)
Bit depth                      : 24 bits
Compression mode               : Lossy
Stream size                    : 1.04 GiB (15%)
Language                       : French
Default                        : No
Forced                         : No

Text #1
ID                             : 4
Format                         : UTF-8
Codec ID                       : S_TEXT/UTF8
Codec ID/Info                  : UTF-8 Plain Text
Duration                       : 1 h 14 min
Bit rate                       : 7 b/s
Count of elements              : 136
Stream size                    : 4.28 KiB (0%)
Title                          : Forced
Language                       : French
Default                        : No
Forced                         : No

Text #2
ID                             : 5
Format                         : UTF-8
Codec ID                       : S_TEXT/UTF8
Codec ID/Info                  : UTF-8 Plain Text
Duration                       : 1 h 38 min
Bit rate                       : 38 b/s
Count of elements              : 1092
Stream size                    : 28.1 KiB (0%)
Language                       : French
Default                        : No
Forced                         : No

Menu
00:00:00.000                   : fr:(01)00:00:00:000
00:09:35.958                   : fr:(02)00:09:35:958
00:15:56.875                   : fr:(03)00:15:56:875
00:23:28.833                   : fr:(04)00:23:28:833
00:33:02.916                   : fr:(05)00:33:02:916
00:39:47.833                   : fr:(06)00:39:47:833
00:48:04.000                   : fr:(07)00:48:04:000
00:55:23.958                   : fr:(08)00:55:23:958
01:04:22.416                   : fr:(09)01:04:22:416
01:12:05.916                   : fr:(10)01:12:05:916
01:19:38.791                   : fr:(11)01:19:38:791
01:28:59.250                   : fr:(12)01:28:59:250



Скриншоты:
[+] Всего файлов в раздаче - 1:
L.Intervention.2019.BDRip.1080p.mkv6.73 GB

Похожие раздачи по запросу - пятнадцать:
2019-06-24 U Пятнадцать минут войны / 15 Minutes of War / L'Intervention (2019) HDRip-AVC от ExKinoRay | L2 1.45 GB ↑ 49 ↓ 10
2019-06-24 U Пятнадцать минут войны / 15 Minutes of War / L'Intervention (2019) BDRip от MegaPeer | L2 1.46 GB ↑ 36 ↓ 16
2019-05-27 U Пятнадцать минут войны / 15 Minutes of War / L'Intervention (2019) WEBRip 720p | LakeFilms 2.03 GB ↑ 133 ↓ 51
2019-05-27 U Пятнадцать минут войны / 15 Minutes of War / L'Intervention (2019) WEBRip 1080p | LakeFilms 3.59 GB ↑ 47 ↓ 36
2019-05-27 U Пятнадцать минут войны / 15 Minutes of War / L'Intervention (2019) WEBRip | LakeFilms 1.17 GB ↑ 121 ↓ 60

Отзывы
Зарегистрируйтесь чтобы добавить комментарий.
Обратная связь
Copyleft ©