↑↓Torrent.by
Поиск
Логин: Регистрация
Пароль: Восстановить пароль
Загрузка...

Крыша мира / Top of the World (1997) WEB-DLRip-AVC | P2, A

Скачать krysha-mira-top-of-the-world-1997-web-dlrip-avc-p2-a.torrent
U Магнитная ссылка Размер: 2.36 GB Раздают: 47 Качают: 11 Добавлен: 2019-06-08 15:55:38
Крыша мира / Top of the World (1997) WEB-DLRip-AVC | P2, A

Название: Крыша мира
Оригинальное название: Top of the World
Год выхода: 1997
Жанр:  Триллер, Боевик, Криминал
Режиссер: Сидни Дж. Фьюри
В ролях: Питер Уэллер, Деннис Хоппер, Тиа Каррере, Дэвид Алан Грир, Джо Пантольяно, Кэри-Хироюки Тагава, Питер Койот, Джули МакКалло, Мартин Коув, Кевин Бернхардт

О фильме:
Бывший полицейский Рэй Мерсер выходит из тюрьмы и приезжает в Лас-Вегас, чтобы развестись с женой . Не удержавшись, он заходит в казино, где выигрывает 450 тыс. долларов. В этот же момент банда налетчиков совершает ограбление этого самого казино...

Продолжительность: 01:38:48
Перевод: Профессиональный (двухголосый, закадровый), авторский (одноголосый, закадровый)
Субтитры: Английские

Файл                                      
Формат: Matroska
Качество видео: WEB-DLRip-AVC
Видео: AVC/H.264, 1024x576, ~2850 Kbps
Аудио 1: AC3, 2 ch, 192 Kbps, 48.0 kHz – Русский DVO, НТВ
Аудио 2: AC3, 2 ch, 192 Kbps, 48.0 kHz – Русский AVO, А. Гаврилов
Аудио 3: AC3, 2 ch, 192 Kbps, 48.0 kHz – Английский
Релиз от: Охрана (NNMCLUB)


[+] M/I
Общее
Уникальный идентификатор                 : 171714919099936431602775001164180924195 (0x812F1728568B0254B206A7EF740CA723)
Полное имя                               : Крыша мира. 1997.mkv
Формат                                   : Matroska
Версия формата                           : Version 4 / Version 2
Размер файла                             : 2,36 Гбайт
Продолжительность                        : 1 ч. 38 м.
Общий поток                              : 3426 Кбит/сек
Дата кодирования                         : UTC 2019-06-08 00:56:39
Программа кодирования                    : mkvmerge v7.9.0 ('Birds') 64bit
Библиотека кодирования                   : libebml v1.3.1 + libmatroska v1.4.2

Видео
Идентификатор                            : 1
Формат                                   : AVC
Формат/Информация                        : Advanced Video Codec
Профиль формата                          : High@L4.1
Настройки формата                        : CABAC / 12 Ref Frames
Параметр CABAC формата                   : Да
Параметр RefFrames формата               : 12 кадров
Идентификатор кодека                     : V_MPEG4/ISO/AVC
Продолжительность                        : 1 ч. 38 м.
Битрейт                                  : 2850 Кбит/сек
Ширина                                   : 1024 пикселя
Высота                                   : 576 пикселей
Соотношение сторон                       : 16:9
Режим частоты кадров                     : Постоянный
Частота кадров                           : 23,976 (24000/1001) кадра/сек
Цветовое пространство                    : YUV
Субдискретизация насыщенности            : 4:2:0
Битовая глубина                          : 8 бит
Тип развёртки                            : Прогрессивная
Бит/(Пиксели*Кадры)                      : 0.202
Размер потока                            : 1,97 Гбайт (83%)
Заголовок                                : Top of the World
Библиотека кодирования                   : x264 core 146 r2538 121396c
Настройки программы                      : cabac=1 / ref=12 / deblock=1:-1:-1 / analyse=0x3:0x113 / me=umh / subme=10 / psy=1 / psy_rd=1.00:0.10 / mixed_ref=1 / me_range=32 / chroma_me=1 / trellis=2 / 8x8dct=1 / cqm=0 / deadzone=21,11 / fast_pskip=0 / chroma_qp_offset=-3 / threads=6 / lookahead_threads=1 / sliced_threads=0 / nr=0 / decimate=0 / interlaced=0 / bluray_compat=0 / constrained_intra=0 / bframes=7 / b_pyramid=2 / b_adapt=2 / b_bias=0 / direct=3 / weightb=1 / open_gop=0 / weightp=2 / keyint=250 / keyint_min=25 / scenecut=40 / intra_refresh=0 / rc_lookahead=60 / rc=2pass / mbtree=1 / bitrate=2850 / ratetol=1.0 / qcomp=0.60 / qpmin=0 / qpmax=69 / qpstep=4 / cplxblur=20.0 / qblur=0.5 / vbv_maxrate=14000 / vbv_bufsize=14000 / nal_hrd=none / filler=0 / ip_ratio=1.40 / aq=1:1.00
Язык                                     : English
Default                                  : Да
Forced                                   : Нет

Аудио #1
Идентификатор                            : 2
Формат                                   : AC-3
Формат/Информация                        : Audio Coding 3
Идентификатор кодека                     : A_AC3
Продолжительность                        : 1 ч. 38 м.
Вид битрейта                             : Постоянный
Битрейт                                  : 192 Кбит/сек
Каналы                                   : 2 канала
Расположение каналов                     : Front: L R
Частота                                  : 48,0 КГц
Частота кадров                           : 31,250 кадров/сек (1536 SPF)
Битовая глубина                          : 16 бит
Метод сжатия                             : С потерями
Размер потока                            : 135 Мбайт (6%)
Заголовок                                : Двухголосый закадровый, НТВ
Язык                                     : Russian
ServiceKind                       : Complete Main
Default                                  : Да
Forced                                   : Нет

Аудио #2
Идентификатор                            : 3
Формат                                   : AC-3
Формат/Информация                        : Audio Coding 3
Идентификатор кодека                     : A_AC3
Продолжительность                        : 1 ч. 38 м.
Вид битрейта                             : Постоянный
Битрейт                                  : 192 Кбит/сек
Каналы                                   : 2 канала
Расположение каналов                     : Front: L R
Частота                                  : 48,0 КГц
Частота кадров                           : 31,250 кадров/сек (1536 SPF)
Битовая глубина                          : 16 бит
Метод сжатия                             : С потерями
Размер потока                            : 135 Мбайт (6%)
Заголовок                                : Авторский, А. Гаврилов
Язык                                     : Russian
ServiceKind                       : Complete Main
Default                                  : Нет
Forced                                   : Нет

Аудио #3
Идентификатор                            : 4
Формат                                   : AC-3
Формат/Информация                        : Audio Coding 3
Идентификатор кодека                     : A_AC3
Продолжительность                        : 1 ч. 38 м.
Вид битрейта                             : Постоянный
Битрейт                                  : 192 Кбит/сек
Каналы                                   : 2 канала
Расположение каналов                     : Front: L R
Частота                                  : 48,0 КГц
Частота кадров                           : 31,250 кадров/сек (1536 SPF)
Битовая глубина                          : 16 бит
Метод сжатия                             : С потерями
Размер потока                            : 136 Мбайт (6%)
Заголовок                                : Английский
Язык                                     : English
ServiceKind                      : Complete Main
Default                                  : Нет
Forced                                   : Нет

Текст
Идентификатор                            : 5
Формат                                   : UTF-8
Идентификатор кодека                     : S_TEXT/UTF8
Идентификатор кодека/Информация          : UTF-8 Plain Text
Продолжительность                        : 1 ч. 38 м.
Битрейт                                  : 63 бит/сек
ElementCount                             : 1841
Размер потока                            : 45,3 Кбайт (0%)
Заголовок                                : Full
Язык                                     : English
Default                                  : Нет
Forced                                   : Нет



Скриншоты:
[+] Всего файлов в раздаче - 1:
Крыша мира. 1997. NNMCLUB.mkv2.36 GB

Показать еще раздачи по запросу крыша:
2019-06-09 U Крыша мира / Top of the World (1997) WEB-DL 1080p | P2, A 10.14 GB ↑ 37 ↓ 19
2018-11-17 U Крыша едет не спеша! (2018) SATRip 672.20 MB ↑ 87 ↓ 17
2018-05-26 U Крыша на ночь / Landing Up (2018) WEBRip 720p | L2 2.64 GB ↑ 75 ↓ 25
2017-09-17 U Здравствуйте, мы Ваша крыша! (2005) DVDRip-AVC от ExKinoRay 1К1.51 GB ↑ 201 ↓ 41
2017-03-31 U Крыша мира [S02] (2017) WEB-DLRip от Files-x 5.87 GB ↑ 186 ↓ 153
2017-03-16 U Крыша мира [02х01-06 из 20] (2017) WEB-DL 1080p от Files-x 5.39 GB ↑ 42 ↓ 53
2017-03-16 U Крыша мира [02х01-06 из 20] (2017) WEB-DLRip от Files-x 1.76 GB ↑ 105 ↓ 52

Отзывы
Зарегистрируйтесь чтобы добавить комментарий.
Обратная связь
Copyleft ©