↑↓Torrent.by
Поиск
Логин: Регистрация
Пароль: Восстановить пароль
Загрузка...

Во имя спасения / Den blomstertid nu kommer (2018) BDRip-AVC от OlLanDGroup | iTunes

Скачать vo-imya-spaseniya-den-blomstertid-nu-kommer-2018-bdrip-avc-ot-ollandgroup-itunes.torrent
U Магнитная ссылка Размер: 1.96 GB Раздают: 35 Качают: 15 Добавлен: 2019-06-08 15:56:06
Во имя спасения / Den blomstertid nu kommer (2018) BDRip-AVC от OlLanDGroup | iTunes

Год выпуска: 2018
Страна: Швеция
Производство: Crazy Pictures
Жанр:  Боевик, триллер, драма, мелодрама, антиутопия

Режиссёр: Виктор Данелл
В ролях: Кристоффер Нурденрут, Лиза Хенни, Йеспер Баркселиус, Пиа Хальворсен, Магнус Сандберг, Кристер Керн, Карин Бертлинг, Ульрика Бэкстром, Алексей Манвелов, Ингве Далберг

Перевод: Дублированный | [iTunes]
Субтитры: Русские (форс.)
Реклама: Отсутствует

Описание: Человечество подверглось таинственному нападению, которому невозможно противостоять. Разрушены дома, мосты и дороги. Люди не могут найти укрытие от неведомой угрозы. Армия оказывается бессильной, поэтому жителям приходится спасаться самостоятельно. Их ожидает мрачное будущее, где единственной целью становится борьба за выживание. Теперь действует принцип — беги или погибнешь. На фоне вселенской катастрофы и царящего хаоса, житель небольшого городка по имени Алекс пытается отыскать свою возлюбленную, которой, возможно, уже нет в живых…

Качество: BDRip-AVC | BluRay Disc | DEN_BLOMSTERTID_NK_2018_BLUEBIRD
Продолжительность: 02:09:19

Формат: MKV
Видео кодек: MPEG-4 AVC
Аудио кодек: AC3
Видео: 1024x428 (2.40:1), 23,976 fps, x264 ~1 784 kbps avg, 0.170 bit/pixel
Аудио #1: 48 kHz, AC3 Dolby Digital Plus, 3/2 (L,C,R,l,r) + LFE ch, ~384.00 kbps avg | RUS (iTunes)

Дата премьеры (мир): 18 июня 2018
Дата премьеры (РФ):
Цифровой релиз: 3 июня 2019, «НД Плэй»

Релиз:


[+] MediaInfo

Общее
Уникальный идентификатор                 : 318780579549269245758719712580113496717 (0xEFD2E808CD45B3998D549E8D6C437A8D)
Полное имя                               : F:OlLanDGroupDen.Blomstertid.Nu.Kommer.2018.BDRip(AVC).OlLanDGroup.mkv
Формат                                   : Matroska
Версия формата                           : Version 4 / Version 2
Размер файла                             : 1,96 Гбайт
Продолжительность                        : 2 ч. 9 м.
Общий поток                              : 2165 Кбит/сек
Название фильма                          : Den.Blomstertid.Nu.Kommer.2018   #TorpedoUK#
Дата кодирования                         : UTC 2019-06-07 13:18:59
Программа кодирования                    : mkvmerge v29.0.0 ('Like It Or Not') 64-bit
Библиотека кодирования                   : libebml v1.3.6 + libmatroska v1.4.9

Видео
Идентификатор                            : 1
Формат                                   : AVC
Формат/Информация                        : Advanced Video Codec
Профиль формата                          : High@L4.1
Параметр CABAC формата                   : Да
Параметр ReFrames формата                : 10 кадров
Идентификатор кодека                     : V_MPEG4/ISO/AVC
Продолжительность                        : 2 ч. 9 м.
Битрейт                                  : 1784 Кбит/сек
Ширина                                   : 1024 пикселя
Высота                                   : 428 пикселей
Соотношение сторон                       : 2,40:1
Режим частоты кадров                     : Постоянный
Частота кадров                           : 23,976 (24000/1001) кадра/сек
Цветовое пространство                    : YUV
Субдискретизация насыщенности            : 4:2:0
Битовая глубина                          : 8 бит
Тип развёртки                            : Прогрессивная
Бит/(Пиксели*Кадры)                      : 0.170
Размер потока                            : 1,61 Гбайт (82%)
Библиотека кодирования                   : x264 core 146 r2538 121396c
Настройки программы                      : cabac=1 / ref=10 / deblock=1:-3:-3 / analyse=0x3:0x113 / me=umh / subme=11 / psy=1 / psy_rd=1.00:0.03 / mixed_ref=1 / me_range=48 / chroma_me=1 / trellis=2 / 8x8dct=1 / cqm=0 / deadzone=21,11 / fast_pskip=1 / chroma_qp_offset=-3 / threads=6 / lookahead_threads=1 / sliced_threads=0 / nr=0 / decimate=1 / interlaced=0 / bluray_compat=0 / constrained_intra=0 / bframes=11 / b_pyramid=2 / b_adapt=2 / b_bias=0 / direct=3 / weightb=1 / open_gop=0 / weightp=2 / keyint=240 / keyint_min=23 / scenecut=40 / intra_refresh=0 / rc_lookahead=40 / rc=2pass / mbtree=0 / bitrate=1784 / ratetol=1.0 / qcomp=0.60 / qpmin=0 / qpmax=69 / qpstep=4 / cplxblur=20.0 / qblur=0.5 / vbv_maxrate=50000 / vbv_bufsize=62500 / nal_hrd=none / filler=0 / ip_ratio=1.40 / pb_ratio=1.30 / aq=1:1.00
Язык                                     : English
Default                                  : Да
Forced                                   : Нет

Аудио
Идентификатор                            : 2
Формат                                   : AC-3
Формат/Информация                        : Audio Coding 3
Расширение режима                        : CM (complete main)
Параметр Endianness формата              : Big
Идентификатор кодека                     : A_AC3
Продолжительность                        : 2 ч. 9 м.
Вид битрейта                             : Постоянный
Битрейт                                  : 384 Кбит/сек
Каналы                                   : 6 каналов
Расположение каналов                     : Front: L C R, Side: L R, LFE
Частота                                  : 48,0 КГц
Частота кадров                           : 31,250 кадров/сек (1536 spf)
Битовая глубина                          : 16 бит
Метод сжатия                             : С потерями
Размер потока                            : 355 Мбайт (18%)
Заголовок                                : DUB [iTunes]
Язык                                     : Russian
Default                                  : Да
Forced                                   : Нет

Текст
Идентификатор                            : 3
Формат                                   : UTF-8
Идентификатор кодека                     : S_TEXT/UTF8
Идентификатор кодека/Информация          : UTF-8 Plain Text
Продолжительность                        : 5 с. 923 мс.
Битрейт                                  : 202 бит/сек
Count of elements                        : 3
Размер потока                            : 150 байт (0%)
Заголовок                                : Forced
Язык                                     : Russian
Default                                  : Да
Forced                                   : Нет

Меню
00:00:00.000                             : :Глава 01
00:13:04.783                             : :Глава 02
00:27:10.920                             : :Глава 03
00:40:55.619                             : :Глава 04
00:53:34.085                             : :Глава 05
01:06:13.552                             : :Глава 06
01:16:39.261                             : :Глава 07
01:25:26.621                             : :Глава 08
01:35:02.570                             : :Глава 09
01:46:24.336                             : :Глава 10
01:56:00.078                             : :Глава 11
02:02:19.457                             : :Глава 12



Скриншоты:
[+] Всего файлов в раздаче - 1:
Den.Blomstertid.Nu.Kommer.2018.BDRip(AVC).OlLanDGroup.mkv1.96 GB

Похожие раздачи по запросу - спасения:
2019-06-10 U Во имя спасения / Den blomstertid nu kommer (2018) BDRip 720p | iTunes 5.52 GB ↑ 35 ↓ 13
2019-06-04 U Во имя спасения / Den blomstertid nu kommer (2018) BDRip 1080p | iTunes 10.94 GB ↑ 88 ↓ 169
2019-06-04 U Во имя спасения / Den blomstertid nu kommer (2018) BDRip от MegaPeer | iTunes 2.12 GB ↑ 108 ↓ 55
2019-06-04 U Во имя спасения / Den blomstertid nu kommer (2018) BDRip от MegaPeer | iTunes 1.46 GB ↑ 124 ↓ 72
2014-10-23 U Бухта спасения / Deliverance Creek (2014) WEB-DLRip | L1 1.36 GB ↑ 158 ↓ 61

Отзывы
Зарегистрируйтесь чтобы добавить комментарий.
Обратная связь
Copyleft ©