↑↓Torrent.by
Поиск
Логин: Регистрация
Пароль: Восстановить пароль
Загрузка...

Золотая молодежь / Une jeunesse dorée (2019) WEBRip 1080p | P

Скачать zolotaya-molodezh-une-jeunesse-dor-e-2019-webrip-1080p-p.torrent
U Магнитная ссылка Размер: 4.11 GB Раздают: 53 Качают: 22 Добавлен: 2019-06-09 07:17:22
Золотая молодежь / Une jeunesse dorée (2019) WEBRip 1080p | P

Название: Золотая молодежь
Оригинальное название: Une jeunesse dorée
Год выхода: 2019
Жанр: драма
Режиссер: Ева Йонеско
В ролях: Изабель Юппер, Галатеа Беллуджи, Мельвиль Пупо, Лукас Йонеско, Ален-Фабьен Делон, Нассим Гвизани, Юдит Зинс, Манал Исса, Брайан Скотт Бэгли, Бенуа Соулз

О фильме:
Роза и Мишель — молодая влюбленная пара. Каждую ночь они находятся в поисках приключений, блуждая по ночным клубам и главным вечеринкам города. На одной из них они встречают необычную супружескую пару. Повинуясь неудержимому желанию прочувствовать атмосферу настоящей свободы и любви, они погружаются в новый мир мечтаний, соблазнов и обманов…

Страна: Франция, Бельгия
Студия: Canal+ [fr]
Продолжительность: 01:47:41
Перевод: профессиональный многоголосый, закадровый [чистый звук]

Файл
Кодек: H.264
Качество: WEBRip 1080p
Видео: AVC, 1920x1038 (1.850), 25 fps ~ 5100 Kbps
Звук: AC3, 48 KHz, 2 ch ~ 256 Kb/s
Субтитры: отсутствуют

Релиз:


[+] MI:

Общее
Уникальный идентификатор : 223842085044485716510973500963557416734 (0xA8666ADD5B249C2B8988D68F370F1F1E)
Полное имя : Q:TorFUne.Jeunesse.Doree.2018.FRENCH.1080p.WEB.H264.mkv
Формат : Matroska
Версия формата : Version 4 / Version 2
Размер файла : 4,11 Гбайт
Продолжительность : 1 ч. 47 м.
Общий поток : 5463 Кбит/сек
Дата кодирования : UTC 2019-06-01 18:44:00
Программа кодирования : mkvmerge v8.3.0 ('Over the Horizon') 64bit
Библиотека кодирования : libebml v1.3.1 + libmatroska v1.4.2
DURATION : 01:47:41.504000000
NUMBER_OF_FRAMES : 201922
NUMBER_OF_BYTES : 206768128
_STATISTICS_WRITING_APP : mkvmerge v8.3.0 ('Over the Horizon') 64bit
_STATISTICS_WRITING_DATE_UTC : 2019-06-01 18:44:00
_STATISTICS_TAGS : BPS DURATION NUMBER_OF_FRAMES NUMBER_OF_BYTES

Видео
Идентификатор : 1
Формат : AVC
Формат/Информация : Advanced Video Codec
Профиль формата : High@L4.0
Параметр CABAC формата : Да
Параметр ReFrames формата : 4 кадра
Идентификатор кодека : V_MPEG4/ISO/AVC
Продолжительность : 1 ч. 47 м.
Битрейт : 5098 Кбит/сек
Ширина : 1920 пикселей
Высота : 1038 пикселей
Соотношение сторон : 1,850
Частота кадров : 25,000 кадров/сек
Цветовое пространство : YUV
Субдискретизация насыщенности : 4:2:0
Битовая глубина : 8 бит
Тип развёртки : Прогрессивная
Бит/(Пиксели*Кадры) : 0.102
Размер потока : 3,83 Гбайт (93%)
Язык : English
Default : Да
Forced : Нет
Основные цвета : BT.709-5, BT.1361, IEC 61966-2-4, SMPTE RP177
Характеристики трансфера : BT.709-5, BT.1361
Коэффициенты матрицы : BT.709-5, BT.1361, IEC 61966-2-4 709, SMPTE RP177

Аудио
Идентификатор : 2
Формат : AC-3
Формат/Информация : Audio Coding 3
Расширение режима : CM (complete main)
Идентификатор кодека : A_AC3
Продолжительность : 1 ч. 47 м.
Вид битрейта : Постоянный
Битрейт : 256 Кбит/сек
Каналы : 2 канала
Расположение каналов : Front: L R
Частота : 48,0 КГц
Битовая глубина : 16 бит
Метод сжатия : С потерями
Задержка видео : -40 мс.
Размер потока : 197 Мбайт (5%)
Default : Да
Forced : Нет



Скриншоты:
[+] Всего файлов в раздаче - 1:
Une.Jeunesse.Doree.2018.FRENCH.1080p.WEB.H264.mkv4.11 GB

Показать еще раздачи по запросу золотая:
2019-06-10 U Золотая молодежь / Une jeunesse doree (2019) WEBRip 720p | P 3.53 GB ↑ 32 ↓ 17
2019-04-29 U Следствие вели... с Леонидом Каневским. Золотая паутина [эфир от 28.04] (2019) WEBRip 1080p от ExKinoRay 1.75 GB ↑ 72 ↓ 11
2018-09-05 U Серия книг - Золотая коллекция фантастики [25 книг] (2013-2018) FB2 103.90 MB ↑ 138 ↓ 36
2018-06-12 U Серия книг - Золотая коллекция фантастики [24 книги] (2013-2018) FB2 99.22 MB ↑ 528 ↓ 30
2018-05-20 U Золотая парочка [01-02 из 02] (2017) WEB-DLRip от GeneralFilm 745.43 MB ↑ 52 ↓ 17
2018-05-19 U Золотая парочка [01-02 из 02] (2017) WEB-DLRip-AVC от Files-x 1.11 GB ↑ 81 ↓ 39
2018-05-19 U Золотая парочка [01-02 из 02] (2017) WEB-DLRip от Files-x 1.08 GB ↑ 153 ↓ 64

Отзывы
Зарегистрируйтесь чтобы добавить комментарий.
Обратная связь
Copyleft ©