↑↓Torrent.by
Поиск
Логин: Регистрация
Пароль: Восстановить пароль
Загрузка...

Крыша мира / Top of the World (1997) WEB-DL 1080p | P2, A

Скачать krysha-mira-top-of-the-world-1997-web-dl-1080p-p2-a.torrent
U Магнитная ссылка Размер: 10.14 GB Раздают: 37 Качают: 19 Добавлен: 2019-06-09 07:18:08
Крыша мира / Top of the World (1997) WEB-DL 1080p | P2, A

Название: Крыша мира
Оригинальное название: Top of the World
Год выхода: 1997
Жанр:  Триллер, Боевик, Криминал
Режиссер: Сидни Дж. Фьюри
В ролях: Питер Уэллер, Деннис Хоппер, Тиа Каррере, Дэвид Алан Грир, Джо Пантольяно, Кэри-Хироюки Тагава, Питер Койот, Джули МакКалло, Мартин Коув, Кевин Бернхардт

О фильме:
Бывший полицейский Рэй Мерсер выходит из тюрьмы и приезжает в Лас-Вегас, чтобы развестись с женой . Не удержавшись, он заходит в казино, где выигрывает 450 тыс. долларов. В этот же момент банда налетчиков совершает ограбление этого самого казино...

Продолжительность: 01:38:48
Перевод: Профессиональный (двухголосый, закадровый), авторский (одноголосый, закадровый)
Субтитры: Английские

Файл                                      
Формат: Matroska
Качество видео: WEB-DL 1080p | AMAZON
Видео: MPEG-4 AVC, 14.1 Мбит/с, 1920x1080, 23.976 Кадр/с
Аудио 1: AC3, 2 ch, 192 Kbps, 48.0 kHz – Русский DVO, НТВ
Аудио 2: AC3, 2 ch, 192 Kbps, 48.0 kHz – Русский AVO, А. Гаврилов
Аудио 3: E-AC3, 2 ch, ~224.00 kbps – Английский


[+] M/I
General
Unique ID                   : 72030604425424344686630823043623575266 (0x363096FCF87355E22F63448FCC485EE2)
Complete name               : Top.of.the.World.1997.1080p.AMZN.WEB-DL.DD2.0.H.264.Rus.Eng.SpaceHD13.mkv
Format                      : Matroska
Format version              : Version 4
Duration                    : 1 h 38 min
Overall bit rate            : 5 660 b/s
Movie name                  : Top.of.the.World.1997.1080p.AMZN.WEB-DL.DD2.0.H.264.Rus.Eng.SpaceHD13
Encoded date                : UTC 2019-05-12 16:20:04
Writing application         : mkvmerge v33.0.0 ('A Little Bit of Madness') 64-bit
Writing library             : libebml v1.3.7 + libmatroska v1.5.0
IsTruncated                 : Yes
Attachments                 : poster.jpg

Video
ID                          : 1
Format                      : AVC
Format/Info                 : Advanced Video Codec
Format profile              : High@L4
Format settings             : CABAC / 4 Ref Frames
Format settings, CABAC      : Yes
Format settings, Reference  : 4 frames
Codec ID                    : V_MPEG4/ISO/AVC
Duration                    : 1 h 38 min
Width                       : 1 920 pixels
Height                      : 1 080 pixels
Display aspect ratio        : 16:9
Frame rate mode             : Constant
Frame rate                  : 23.976 (24000/1001) FPS
Color space                 : YUV
Chroma subsampling          : 4:2:0
Bit depth                   : 8 bits
Scan type                   : Progressive
Title                       : Top.of.the.World.1997.1080p.AMZN.WEB-DL.DD2.0.H.264.Rus.Eng.SpaceHD13
Language                    : Russian
Default                     : Yes
Forced                      : No
Color range                 : Limited
Color primaries             : BT.709
Transfer characteristics    : BT.709
Matrix coefficients         : BT.709

Audio #1
ID                          : 2
Format                      : AC-3
Format/Info                 : Audio Coding 3
Commercial name             : Dolby Digital
Codec ID                    : A_AC3
Duration                    : 1 h 38 min
Bit rate mode               : Constant
Bit rate                    : 192 kb/s
Channel(s)                  : 2 channels
Channel layout              : L R
Sampling rate               : 48.0 kHz
Frame rate                  : 31.250 FPS (1536 SPF)
Bit depth                   : 16 bits
Compression mode            : Lossy
Stream size                 : 136 MiB
Title                       : DVO-НТВ
Language                    : Russian
Service kind                : Complete Main
Default                     : Yes
Forced                      : No

Audio #2
ID                          : 3
Format                      : AC-3
Format/Info                 : Audio Coding 3
Commercial name             : Dolby Digital
Codec ID                    : A_AC3
Duration                    : 1 h 38 min
Bit rate mode               : Constant
Bit rate                    : 192 kb/s
Channel(s)                  : 2 channels
Channel layout              : L R
Sampling rate               : 48.0 kHz
Frame rate                  : 31.250 FPS (1536 SPF)
Bit depth                   : 16 bits
Compression mode            : Lossy
Stream size                 : 136 MiB
Title                       : AVO-Гаврилов
Language                    : Russian
Service kind                : Complete Main
Default                     : No
Forced                      : No

Audio #3
ID                          : 4
Format                      : E-AC-3
Format/Info                 : Enhanced AC-3
Commercial name             : Dolby Digital Plus
Codec ID                    : A_EAC3
Duration                    : 1 h 38 min
Bit rate mode               : Constant
Bit rate                    : 224 kb/s
Channel(s)                  : 2 channels
Channel layout              : L R
Sampling rate               : 48.0 kHz
Frame rate                  : 31.250 FPS (1536 SPF)
Compression mode            : Lossy
Stream size                 : 158 MiB
Language                    : English
Service kind                : Complete Main
Default                     : No
Forced                      : No

Text
ID                          : 5
Format                      : UTF-8
Codec ID                    : S_TEXT/UTF8
Codec ID/Info               : UTF-8 Plain Text
Language                    : English
Default                     : Yes
Forced                      : No



Скриншоты:
[+] Всего файлов в раздаче - 1:
Top.of.the.World.1997.1080p.AMZN.WEB-DL.DD2.0.H.264.Rus.Eng.SpaceHD13.mkv10.14 GB

Показать еще раздачи по запросу крыша:
2019-06-08 U Крыша мира / Top of the World (1997) WEB-DLRip-AVC | P2, A 2.36 GB ↑ 48 ↓ 11
2018-11-17 U Крыша едет не спеша! (2018) SATRip 672.20 MB ↑ 87 ↓ 17
2018-05-26 U Крыша на ночь / Landing Up (2018) WEBRip 720p | L2 2.64 GB ↑ 75 ↓ 25
2017-09-17 U Здравствуйте, мы Ваша крыша! (2005) DVDRip-AVC от ExKinoRay 1К1.51 GB ↑ 201 ↓ 41
2017-03-31 U Крыша мира [S02] (2017) WEB-DLRip от Files-x 5.87 GB ↑ 186 ↓ 153
2017-03-16 U Крыша мира [02х01-06 из 20] (2017) WEB-DL 1080p от Files-x 5.39 GB ↑ 42 ↓ 53
2017-03-16 U Крыша мира [02х01-06 из 20] (2017) WEB-DLRip от Files-x 1.76 GB ↑ 105 ↓ 52

Отзывы
Зарегистрируйтесь чтобы добавить комментарий.
Обратная связь
Copyleft ©