↑↓Torrent.by
Поиск
Логин: Регистрация
Пароль: Восстановить пароль
Загрузка...

Чистая правда / All Is True (2018) WEB-DL 1080p | HDRezka Studio

Скачать chistaya-pravda-all-is-true-2018-web-dl-1080p-hdrezka-studio.torrent
U Магнитная ссылка Размер: 3.61 GB Раздают: 31 Качают: 14 Добавлен: 2019-06-09 07:18:24
Чистая правда / All Is True (2018) WEB-DL 1080p | HDRezka Studio

Название: Чистая правда
Оригинальное название: All Is True
Год выпуска: 2018
Жанр:  Драма, биография, история
Режиссер: Кеннет Брана
В ролях: Кеннет Брана, Лолита Чакрабарти, Джек Колгрейв Херст, Даг Коллинг, Элеонора де Рохан, Джуди Денч, Фил Данстер, Фрейя Дуркан, Флора Истон, Сэм Эллис

О фильме: События разворачиваются в последние годы жизни Уильяма Шекспира — знаменитого поэта и драматурга, признанного величайшим писателем эпохи. Когда в июне 1613 года дотла сгорел знаменитый театр «Глобус», Шекспир оказался в опустошенном состоянии и дал обещание прекратить писать, а затем вернулся в Стратфорд к своей семье. Пережив смерть единственного сына, он изо всех сил старается наладить отношения с отдалившимися женой и дочерьми, однако сначала писателю предстоит разобраться в себе.

Выпущено: Великобритания, TKBC
Продолжительность: 01:40:54
Перевод: Профессиональный (многоголосый, закадровый) | HDRezka Studio

Файл
Качество: WEB-DL 1080p
Контейнер: MKV
Видео: MPEG-4 AVC, 4549 Кбит/с, 1920x796
Аудио 1: Русский: AC3, 2 ch, 192 Кбит/с - HDRezka Studio
Аудио 2: Английский: AC3, 6 ch, 384 Кбит/с - Original
Субтитры: Английские


[+] MediaInfo
General
Unique ID                                : 103552666304590835169709715343459053065 (0x4DE784A143F2B73952C4A7BDED696E09)
Complete name                            : G:All.is.True.2018.WEB-DL.1080p.mkv
Format                                   : Matroska
Format version                           : Version 4 / Version 2
File size                                : 3.61 GiB
Duration                                 : 1 h 40 min
Overall bit rate                         : 5 127 kb/s
Encoded date                             : UTC 2019-06-08 11:46:01
Writing application                      : mkvmerge v20.0.0 ('I Am The Sun') 64-bit
Writing library                          : libebml v1.3.5 + libmatroska v1.4.8

Video
ID                                       : 1
Format                                   : AVC
Format/Info                              : Advanced Video Codec
Format profile                           : High@L4
Format settings                          : CABAC / 5 Ref Frames
Format settings, CABAC                   : Yes
Format settings, RefFrames               : 5 frames
Codec ID                                 : V_MPEG4/ISO/AVC
Duration                                 : 1 h 40 min
Bit rate                                 : 4 549 kb/s
Width                                    : 1 920 pixels
Height                                   : 796 pixels
Display aspect ratio                     : 2.40:1
Frame rate mode                          : Constant
Frame rate                               : 23.976 FPS
Color space                              : YUV
Chroma subsampling                       : 4:2:0
Bit depth                                : 8 bits
Scan type                                : Progressive
Bits/(Pixel*Frame)                       : 0.124
Stream size                              : 3.21 GiB (89%)
Language                                 : English
Default                                  : Yes
Forced                                   : No
Color range                              : Limited
Color primaries                          : BT.709
Transfer characteristics                 : BT.709
Matrix coefficients                      : BT.709

Audio #1
ID                                       : 2
Format                                   : AC-3
Format/Info                              : Audio Coding 3
Codec ID                                 : A_AC3
Duration                                 : 1 h 40 min
Bit rate mode                            : Constant
Bit rate                                 : 192 kb/s
Channel(s)                               : 2 channels
Channel positions                        : Front: L R
Sampling rate                            : 48.0 kHz
Frame rate                               : 31.250 FPS (1536 SPF)
Bit depth                                : 16 bits
Compression mode                         : Lossy
Stream size                              : 139 MiB (4%)
Title                                    : MVO, HDRezka Studio
Language                                 : Russian
Service kind                             : Complete Main
Default                                  : Yes
Forced                                   : No

Audio #2
ID                                       : 3
Format                                   : AC-3
Format/Info                              : Audio Coding 3
Codec ID                                 : A_AC3
Duration                                 : 1 h 40 min
Bit rate mode                            : Constant
Bit rate                                 : 384 kb/s
Channel(s)                               : 6 channels
Channel positions                        : Front: L C R, Side: L R, LFE
Sampling rate                            : 48.0 kHz
Frame rate                               : 31.250 FPS (1536 SPF)
Bit depth                                : 16 bits
Compression mode                         : Lossy
Stream size                              : 277 MiB (7%)
Language                                 : English
Service kind                             : Complete Main
Default                                  : No
Forced                                   : No

Text
ID                                       : 4
Format                                   : UTF-8
Codec ID                                 : S_TEXT/UTF8
Codec ID/Info                            : UTF-8 Plain Text
Duration                                 : 1 h 40 min
Bit rate                                 : 55 b/s
Count of elements                        : 1305
Stream size                              : 41.1 KiB (0%)
Language                                 : English
Default                                  : No
Forced                                   : No

Menu
00:00:00.000                             : en:1
00:05:54.938                             : en:2
00:12:25.161                             : en:3
00:18:54.133                             : en:4
00:24:21.460                             : en:5
00:30:46.720                             : en:6
00:35:48.271                             : en:7
00:38:06.325                             : en:8
00:50:11.674                             : en:9
00:59:54.840                             : en:10
01:02:07.888                             : en:11
01:06:19.598                             : en:12
01:13:43.082                             : en:13
01:18:55.017                             : en:14
01:28:06.693                             : en:15
01:31:35.193                             : en:16



Скриншоты:
[+] Всего файлов в раздаче - 1:
All.is.True.2018.WEB-DL.1080p.mkv3.61 GB

Похожие раздачи по запросу - чистая:
2018-07-17 U Моя чистая земля / My Pure Land (2017) HDRip-AVC | L1 1.49 GB ↑ 50 ↓ 25
2017-04-16 U Дэнни Кавадло - Тренировочная зона. Чистая сила без тренажеров, диет и стимуляторов (2017) PDF 233.09 MB ↑ 1080 ↓ 11
2016-01-31 U Counter-Strike: Source v86 (чистая сборка + автообновлятор) 1К2.18 GB ↑ 1798 ↓ 28
2014-07-22 U Counter-Strike 1.6 (2014) [Ru] (build Чистая сборка+боты) Repack.V2 181.24 MB ↑ 1920 ↓ 16
2014-03-06 U Олди Генри Лайон - Чистая фэнтези: Скорлупарь (2014) MP3 78.50 MB ↑ 17 ↓ 1
2014-02-04 U Чистая победа (2012) DVDRip 1К1.46 GB ↑ 180 ↓ 148

Отзывы
Зарегистрируйтесь чтобы добавить комментарий.
Обратная связь
Copyleft ©