↑↓Torrent.by
Поиск
Логин: Регистрация
Пароль: Восстановить пароль
Загрузка...

Видок / Vidocq (2001) BDRip 1080p

Скачать vidok-vidocq-2001-bdrip-1080p.torrent
U Магнитная ссылка Размер: 5.77 GB Раздают: 21 Качают: 13 Добавлен: 2019-06-09 07:19:13
Видок / Vidocq (2001) BDRip 1080p

Название: Видок
Оригинальное название: Vidocq
Год выхода: 2001
Жанр:  фантастика, фэнтези, боевик, триллер, криминал, детектив
Режиссер: Питоф / Pitof
В ролях: Жерар Депардье, Гийом Кане, Инес Састр, Андре Дюссолье, Эдит Скоб, Мусса Мааскри, Жан-Пьер Гос, Изабель Рено, Жан-Поль Дюбуа, Андре Пенверн

О фильме:
Париж ХIХ века охвачен паникой. В его «чреве» завелся серийный убийца, которого может вычислить только гениальный сыщик Видок. Реальный исторический персонаж, не знающий удержу — особенно в исполнении громоподобного Депардье — ни в своих перевоплощениях, ни в дьявольской интуиции.
Он мчится по следу загадочного Алхимика. Волшебные декорации города, который разрывают вспышки молний, потайные двери, одуряющие наркотическим безумием, в хитроумную лабораторию, где кружится голова.

Выпущено: Франция
Продолжительность: 1:37:38
Перевод: Дублированный + Оригинал (Fre)

Файл
Кодек: x264
Качество: BDRip 1080p
Видео: 1920x1040, 7178 Kbps, 24,000 fps
Аудио #1: AC-3, 6 ch, 640 kbps (Rus)
Аудио #2: AC-3, 6 ch, 640 kbps (Fre)
Субтитры: русские, французские, английские


[+] MI
Общее
Уникальный идентификатор                 : 202215524828319035413692656533989263140 (0x98214B1F73F4EA89B02C65F01EFC8724)
Полное имя                               : Видок.2001.BDRip.1080p.Rus.Fre.mkv
Формат                                   : Matroska
Версия формата                           : Version 4 / Version 2
Размер файла                             : 5,77 Гбайт
Продолжительность                        : 1 ч. 37 м.
Общий поток                              : 8458 Кбит/сек
Название фильма                          : Видок.2001
Дата кодирования                         : UTC 2013-03-31 18:34:25
Программа кодирования                    : mkvmerge v6.1.0 ('Old Devil') built on Mar  4 2013 09:10:42
Библиотека кодирования                   : libebml v1.3.0 + libmatroska v1.4.0

Видео
Идентификатор                            : 1
Формат                                   : AVC
Формат/Информация                        : Advanced Video Codec
Профиль формата                          : High@L4.1
Параметр CABAC формата                   : Да
Параметр ReFrames формата                : 4 кадра
Идентификатор кодека                     : V_MPEG4/ISO/AVC
Продолжительность                        : 1 ч. 37 м.
Битрейт                                  : 7178 Кбит/сек
Ширина                                   : 1920 пикселей
Высота                                   : 1040 пикселей
Соотношение сторон                       : 1,85:1
Режим частоты кадров                     : Постоянный
Частота кадров                           : 24,000 кадра/сек
Цветовое пространство                    : YUV
Субдискретизация насыщенности            : 4:2:0
Битовая глубина                          : 8 бит
Тип развёртки                            : Прогрессивная
Бит/(Пиксели*Кадры)                      : 0.150
Размер потока                            : 4,78 Гбайт (83%)
Заголовок                                : Rip by Boriy
Библиотека кодирования                   : x264 core 130 r2273 b3065e6
Настройки программы                      : cabac=1 / ref=4 / deblock=1:0:0 / analyse=0x3:0x113 / me=umh / subme=10 / psy=1 / psy_rd=1.00:0.10 / mixed_ref=1 / me_range=32 / chroma_me=1 / trellis=2 / 8x8dct=1 / cqm=0 / deadzone=21,11 / fast_pskip=0 / chroma_qp_offset=-2 / threads=12 / lookahead_threads=1 / sliced_threads=0 / nr=0 / decimate=0 / interlaced=0 / bluray_compat=0 / constrained_intra=0 / bframes=5 / b_pyramid=2 / b_adapt=2 / b_bias=0 / direct=3 / weightb=1 / open_gop=0 / weightp=2 / keyint=240 / keyint_min=24 / scenecut=40 / intra_refresh=0 / rc=2pass / mbtree=0 / bitrate=7178 / ratetol=1.0 / qcomp=0.60 / qpmin=0 / qpmax=69 / qpstep=4 / cplxblur=20.0 / qblur=0.5 / ip_ratio=1.40 / pb_ratio=1.30 / aq=1:0.80
Язык                                     : English
Default                                  : Да
Forced                                   : Нет

Аудио #1
Идентификатор                            : 2
Формат                                   : AC-3
Формат/Информация                        : Audio Coding 3
Расширение режима                        : CM (complete main)
Параметр Endianness формата              : Big
Идентификатор кодека                     : A_AC3
Продолжительность                        : 1 ч. 37 м.
Вид битрейта                             : Постоянный
Битрейт                                  : 640 Кбит/сек
Каналы                                   : 6 каналов
Расположение каналов                     : Front: L C R, Side: L R, LFE
Частота                                  : 48,0 КГц
Битовая глубина                          : 16 бит
Метод сжатия                             : С потерями
Размер потока                            : 447 Мбайт (8%)
Заголовок                                : Дубляж
Язык                                     : Russian
Default                                  : Да
Forced                                   : Нет

Аудио #2
Идентификатор                            : 3
Формат                                   : AC-3
Формат/Информация                        : Audio Coding 3
Расширение режима                        : CM (complete main)
Параметр Endianness формата              : Big
Идентификатор кодека                     : A_AC3
Продолжительность                        : 1 ч. 37 м.
Вид битрейта                             : Постоянный
Битрейт                                  : 640 Кбит/сек
Каналы                                   : 6 каналов
Расположение каналов                     : Front: L C R, Side: L R, LFE
Частота                                  : 48,0 КГц
Битовая глубина                          : 16 бит
Метод сжатия                             : С потерями
Задержка видео                           : 9 с. 542 мс.
Размер потока                            : 447 Мбайт (8%)
Заголовок                                : Оригинал
Язык                                     : French
Default                                  : Нет
Forced                                   : Нет

Текст #1
Идентификатор                            : 4
Формат                                   : UTF-8
Идентификатор кодека                     : S_TEXT/UTF8
Идентификатор кодека/Информация          : UTF-8 Plain Text
Язык                                     : Russian
Default                                  : Нет
Forced                                   : Нет

Текст #2
Идентификатор                            : 5
Формат                                   : UTF-8
Идентификатор кодека                     : S_TEXT/UTF8
Идентификатор кодека/Информация          : UTF-8 Plain Text
Язык                                     : French
Default                                  : Нет
Forced                                   : Нет

Текст #3
Идентификатор                            : 6
Формат                                   : UTF-8
Идентификатор кодека                     : S_TEXT/UTF8
Идентификатор кодека/Информация          : UTF-8 Plain Text
Язык                                     : English
Default                                  : Нет
Forced                                   : Нет

Меню
00:00:00.000                             : :Chapter 1
00:05:13.000                             : :Chapter 2
00:06:45.332                             : :Chapter 3
00:10:54.290                             : :Chapter 4
00:14:21.833                             : :Chapter 5
00:19:24.666                             : :Chapter 6
00:24:00.000                             : :Chapter 7
00:31:17.583                             : :Chapter 8
00:36:58.750                             : :Chapter 9
00:41:43.375                             : :Chapter 10
00:47:14.333                             : :Chapter 11
00:54:20.041                             : :Chapter 12
01:02:17.000                             : :Chapter 13
01:12:00.541                             : :Chapter 14
01:20:25.582                             : :Chapter 15
01:27:33.875                             : :Chapter 16
01:32:11.041                             : :Chapter 17
01:33:55.207                             : :Chapter 18
01:37:30.000                             : :Chapter 19



[+] x264
x264 [info]: frame I:1140  Avg QP:17.17  size:183636
x264 [info]: frame P:39695 Avg QP:20.12  size: 67899
x264 [info]: frame B:99770 Avg QP:21.81  size: 23562



Скриншоты:
[+] Всего файлов в раздаче - 1:
Видок.2001.BDRip.1080p.Rus.Fre.mkv5.77 GB

Показать еще раздачи по запросу видок:
2019-06-16 U Видок: Охотник на призраков / Видок: Император Парижа / L'Empereur de Paris (2018) HDRip от Portablius | HDrezka Studio 747.26 MB ↑ 106 ↓ 38
2019-06-16 U Видок: Охотник на призраков / Видок: Император Парижа / L'Empereur de Paris (2018) HDRip-AVC | HDRezka Studio 746.58 MB ↑ 65 ↓ 11
2019-06-15 U Видок: Охотник на призраков / Видок: Император Парижа / L'Empereur de Paris (2018) BDRemux 1080p | HDRezka Studio 32.04 GB ↑ 88 ↓ 68
2019-06-14 U Видок: Охотник на призраков / Видок: Император Парижа / L'Empereur de Paris (2018) BDRip 1080p | HDRezka Studio 9.06 GB ↑ 468 ↓ 283
2019-06-14 U Видок: Охотник на призраков / Видок: Император Парижа / L'Empereur de Paris (2018) HDRip | HDRezka Studio 1.46 GB ↑ 1072 ↓ 464
2019-06-14 U Видок: Охотник на призраков / Видок: Император Парижа / L'Empereur de Paris (2018) BDRip-AVC от OlLanDGroup | P 1.66 GB ↑ 364 ↓ 88
2019-06-14 U Видок: Охотник на призраков / Видок: Император Парижа / L'Empereur de Paris (2018) BDRip 720p от ExKinoRay | HDrezka Studio 4.78 GB ↑ 623 ↓ 115

Отзывы
Зарегистрируйтесь чтобы добавить комментарий.
Обратная связь
Copyleft ©