↑↓Torrent.by
Поиск
Логин: Регистрация
Пароль: Восстановить пароль
Загрузка...

Заноза / Splinter (2008) BDRip-AVC от ExKinoRay | P, L2

Скачать zanoza-splinter-2008-bdrip-avc-ot-exkinoray-p-l2.torrent
U Магнитная ссылка Размер: 746.07 MB Раздают: 21 Качают: 14 Добавлен: 2019-06-09 07:19:18
Заноза / Splinter (2008) BDRip-AVC от ExKinoRay | P, L2

Название: Заноза
Оригинальное название: Splinter
Год выхода: 2008
Жанр:  Ужасы, фантастика, триллер
Режиссер: Тоби Уилкинс
В ролях: Чарльз Бэйкер, Джилл Вагнер, Паоло Костанзо, Ши Уигхэм, Рэйчел Кербс, Лорел Уитсетт

О фильме:
Молодая семейная пара объединяются с разыскиваемым преступником. Им необходимо противостоять паразитической твари, которая стремиться заразить и убить как можно больше людей. В этом фильме образ зомби весьма не классический. Зомбированные твари быстро передвигаются прыжками, причем части тела могут двигаться самостоятельно. Зараза распространяется с помощью заноз, просто уколовшись о торчащую из тела иголку человек становиться зомби. У жертвы теряется контроль над функциями организма, иголки правят телом человека.

Страна: США
Студия: ContentFilm International, Magnet Releasing, Indion Entertainment Group
Продолжительность: 01:22:03
Перевод: Профессиональный многоголосый, любительский двухголосый

Файл
Формат: MKV
Качество: BDRip-AVC (BDRemux 1080p)
Видео: MPEG-4 AVC, 800x340, - 1117 Кбит/с
Аудио 1:  AAC-HE, 2 ch, ~ 76 Кбит/с | MVO, «R5»
Аудио 2:  AAC-HE, 2 ch, ~ 76 Кбит/с | DVO, «Интерфильм»
Субтитры: Нет


[+] MI
Общее
Уникальный идентификатор : 304190702540649797208359254676743608295 (0xE4D8FF8F74DE87F49979AAE5C19357E7)
Полное имя : D:MOVIESSplinter.2008.BDRip-AVC.ExKinoRay.mkv
Формат : Matroska
Версия формата : Version 4 / Version 2
Размер файла : 746 Мбайт
Продолжительность : 1 ч. 22 м.
Общий поток : 1271 Кбит/сек
Дата кодирования : UTC 2019-06-08 17:34:16
Программа кодирования : mkvmerge v32.0.0 ('Astral Progressions') 64-bit
Библиотека кодирования : libebml v1.3.7 + libmatroska v1.5.0

Видео
Идентификатор : 1
Формат : AVC
Формат/Информация : Advanced Video Codec
Профиль формата : High@L4.1
Параметр CABAC формата : Да
Параметр RefFrames формата : 12 кадров
Идентификатор кодека : V_MPEG4/ISO/AVC
Продолжительность : 1 ч. 22 м.
Битрейт : 1117 Кбит/сек
Ширина : 800 пикселей
Высота : 340 пикселей
Соотношение сторон : 2,35:1
Режим частоты кадров : Постоянный
Частота кадров : 23,976 (24000/1001) кадра/сек
Цветовое пространство : YUV
Субдискретизация насыщенности : 4:2:0
Битовая глубина : 8 бит
Тип развёртки : Прогрессивная
Бит/(Пиксели*Кадры) : 0.171
Размер потока : 656 Мбайт (88%)
Библиотека кодирования : x264 core 152 r2851kMod ba24899
Настройки программы : cabac=1 / ref=12 / deblock=1:-2:-2 / analyse=0x3:0x133 / me=umh / subme=10 / psy=1 / fade_compensate=0.00 / psy_rd=1.00:0.10 / mixed_ref=1 / me_range=32 / chroma_me=1 / trellis=2 / 8x8dct=1 / cqm=0 / deadzone=21,11 / fast_pskip=0 / chroma_qp_offset=-3 / threads=6 / lookahead_threads=1 / sliced_threads=0 / nr=0 / decimate=0 / interlaced=0 / bluray_compat=0 / constrained_intra=0 / bframes=12 / b_pyramid=2 / b_adapt=2 / b_bias=0 / direct=3 / weightb=1 / open_gop=0 / weightp=2 / keyint=240 / keyint_min=23 / scenecut=40 / intra_refresh=0 / rc_lookahead=40 / rc=2pass / mbtree=1 / bitrate=1117 / ratetol=1.0 / qcomp=0.60 / qpmin=0 / qpmax=69 / qpstep=4 / cplxblur=20.0 / qblur=0.5 / ip_ratio=1.40 / aq=3:1.00
Default : Да
Forced : Нет

Аудио #1
Идентификатор : 2
Формат : AAC
Формат/Информация : Advanced Audio Codec
Профиль формата : HE-AAC / LC
Идентификатор кодека : A_AAC
Продолжительность : 1 ч. 22 м.
Битрейт : 76,0 Кбит/сек
Каналы : 2 канала
Расположение каналов : Front: L R
Частота : 48,0 КГц / 24,0 КГц
Частота кадров : 23,438 кадра/сек (1024 SPF)
Метод сжатия : С потерями
Задержка видео : 31 мс.
Размер потока : 44,6 Мбайт (6%)
Заголовок : R5
Язык : Russian
Default : Да
Forced : Нет

Аудио #2
Идентификатор : 3
Формат : AAC
Формат/Информация : Advanced Audio Codec
Профиль формата : HE-AAC / LC
Идентификатор кодека : A_AAC
Продолжительность : 1 ч. 22 м.
Битрейт : 76,0 Кбит/сек
Каналы : 2 канала
Расположение каналов : Front: L R
Частота : 48,0 КГц / 24,0 КГц
Частота кадров : 23,438 кадра/сек (1024 SPF)
Метод сжатия : С потерями
Задержка видео : 31 мс.
Размер потока : 44,6 Мбайт (6%)
Заголовок : Интерфильм
Язык : Russian
Default : Нет
Forced : Нет

Меню
00:00:00.000 : en:00:00:00.000
00:05:47.305 : en:00:05:47.305
00:13:29.851 : en:00:13:29.851
00:20:10.126 : en:00:20:10.126
00:29:59.965 : en:00:29:59.965
00:35:54.778 : en:00:35:54.778
00:42:15.825 : en:00:42:15.825
00:54:35.981 : en:00:54:35.981
00:59:05.208 : en:00:59:05.208
01:06:52.217 : en:01:06:52.217
01:12:38.229 : en:01:12:38.229
01:19:18.545 : en:01:19:18.545



Скриншоты:
[+] Всего файлов в раздаче - 1:
Splinter.2008.BDRip-AVC.ExKinoRay.mkv746.07 MB

Отзывы
Зарегистрируйтесь чтобы добавить комментарий.
Обратная связь
Copyleft ©