↑↓Torrent.by
Поиск
Логин: Регистрация
Пароль: Восстановить пароль
Загрузка...

Батальон [01-04 из 04] (2018) WEBRip от GeneralFilm

Скачать batalon-01-04-iz-2018-webrip-ot-generalfilm.torrent
U Магнитная ссылка Размер: 2.18 GB Раздают: 134 Качают: 75 Добавлен: 2019-06-10 08:33:06
Батальон [01-04 из 04] (2018) WEBRip от GeneralFilm

Оригинальное название: Батальон
Год выпуска: 2018
Жанр:  Военный, боевик, драма, история
Выпущено: Россия, «IKa Film», Киностудия «КИТ»
Режиссер: Алексей Быстрицкий
В ролях: Максим Щёголев, Александр Бухаров, Михаил Бабичев, Полина Ястребова, Пьер Бурель, Александр Замураев, Андрей Стоянов, Пётр Королёв, Илья Волков, Глеб Гервассиев, Антон Багмет, Виталий Кондрашов, Павел Юдин, Зепюр Брутян

О сериале: Действие фильма развернётся в 1999 году, когда Югославия находилась на пике распада. Война, голод, разруха и мародёрство. Албанское население хочет навсегда избавить свою землю от сербов. Аэропорт города Приштина – важный стратегический объект, и если его займёт Армия освобождения Косово во главе с Брахимом, то местные албанцы устроят настоящий геноцид сербского народа. Командование России принимает решение захватить аэропорт первыми. Для того, чтобы удержать аэропорт до прихода батальона и не допустить передачу оружия и техники косовским боевикам, на объект отправляют группу спецназовцев ГРУ.

Качество: WEBRip
Видео: XviD build 73, 720x304 (2.37:1), ~ 1450 Kbps, 25.000 fps, (~ 0.265 bit/pixel)
Аудио: 48.0 kHz, AC3, 2/0 ch, 192 kbps
Продолжительность: 4 x ~ 00:48:00
Перевод: Не требуется [Русский]
Cубтитры: нет

Релиз:


[+] MediaInfo

General
Complete name: D:RazdachiBataljon.2019.WEBRip.GeneralFilmBataljon.e01.avi
Format: AVI
Format/Info: Audio Video Interleave
File size: 557 MiB
Duration: 47 min 8 s
Overall bit rate: 1 653 kb/s
Writing application: VirtualDubMod 1.5.10.3 | www.virtualdub-fr.org || (build 2550/release)
Writing library: VirtualDubMod build 2550/release

Video
ID: 0
Format: MPEG-4 Visual
Format profile: Advanced Simple@L5
Format settings: BVOP1 / Custom Matrix
Format settings, BVOP: 1
Format settings, QPel: No
Format settings, GMC: No warppoints
Format settings, Matrix: Custom
Codec ID: XVID
Codec ID/Hint: XviD
Duration: 47 min 8 s
Bit rate: 1 451 kb/s
Width: 720 pixels
Height: 304 pixels
Display aspect ratio: 2.35:1
Frame rate: 25.000 FPS
Color space: YUV
Chroma subsampling: 4:2:0
Bit depth: 8 bits
Scan type: Progressive
Compression mode: Lossy
Bits/(Pixel*Frame): 0.265
Stream size: 489 MiB (88%)
Writing library: XviD 73

Audio
ID: 1
Format: AC-3
Format/Info: Audio Coding 3
Commercial name: Dolby Digital
Codec ID: 2000
Duration: 47 min 8 s
Bit rate mode: Constant
Bit rate: 192 kb/s
Channel(s): 2 channels
Channel layout: L R
Sampling rate: 48.0 kHz
Frame rate: 31.250 FPS (1536 SPF)
Bit depth: 16 bits
Compression mode: Lossy
Stream size: 64.7 MiB (12%)
Alignment: Split accross interleaves
Interleave, duration: 40 ms (1.00 video frame)
Interleave, preload duratio: 500 ms
Service kind: Complete Main



Скриншоты:
[+] Всего файлов в раздаче - 4:
Bataljon.e01.avi557.24 MB
Bataljon.e02.avi557.04 MB
Bataljon.e03.avi557.32 MB
Bataljon.e04.avi557.25 MB

Показать еще раздачи по запросу батальон:
2019-06-10 U Батальон [01-04 из 04] (2018) WEBRip от Files-x 2.46 GB ↑ 75 ↓ 62
2019-06-10 U Батальон [01-04 из 04] (2018) WEBRip-AVC от Files-x 3.00 GB ↑ 85 ↓ 36
2019-06-10 U Батальон [01-04 из 04] (2018) WEBRip от ExKinoRay 2.73 GB ↑ 71 ↓ 22
2019-06-10 U Батальон [01-04 из 04] (2019) WEBRip-AVC от GeneralFilm 2.34 GB ↑ 40 ↓ 31
2019-06-10 U Батальон [01-04 из 04] (2018) WEBRip 720p от ExKinoRay 5.73 GB ↑ 61 ↓ 49
2019-06-10 U Батальон [01-04 из 04] (2018) WEBRip 1080p от ExKinoRay 8.39 GB ↑ 91 ↓ 57
2019-06-09 U Батальон [01х01-04 из 04] (2019) SATRip-AVC 2.44 GB ↑ 4 ↓ 21

Отзывы
Зарегистрируйтесь чтобы добавить комментарий.
Обратная связь
Copyleft ©