↑↓Torrent.by
Поиск
Логин: Регистрация
Пароль: Восстановить пароль
Загрузка...

Блуждающая Земля / Liu lang di qiu / The Wandering Earth (2019) WEB-DLRip-AVC от OlLanDGroup | P, A

Скачать bluzhdayuschaya-zemlya-liu-lang-di-qiu-the-wandering-earth-2019-web-dlrip-avc-ot-ollandgroup-p-a.torrent
U Магнитная ссылка Размер: 1.46 GB Раздают: 63 Качают: 21 Добавлен: 2019-06-10 08:33:36
Блуждающая Земля / Liu lang di qiu / The Wandering Earth (2019) WEB-DLRip-AVC от OlLanDGroup | P, A

Год выпуска: 2019
Страна: Китай
Производство: Beijing Culture, China Film Company Limited., United Entertainment Partners
Жанр:  Фантастика, боевик

Режиссёр: Франт Гво
В ролях: Джеки Ву, Чусяо Цюй, Гуанцзе Ли, Нг Ман-Тат, Чжао Цзиньмай, Цзинцзин Цюй, Чжан Ичи, Ян Хаоюй, Аркадий Шароградский, Ли Хунчэнь, Цзян Чжиган, Чжан Хуань, Цзяинь Лэй, Нин Хао, Ван Чжи

Перевод: Профессиональный многоголосый | [HDRezka Studio], Авторский | [Дольский]
Субтитры: Русские (форс., полные), Английские (полные, SDH)
Реклама: Отсутствует

Описание: В ближайшем будущем становится известно, что Солнце скоро погаснет, и Солнечная система будет разрушена. Тогда человечество запускает масштабный проект под названием «Блуждающая Земля», цель которого — с помощью огромных двигателей по всему миру сдвинуть Землю и полететь искать новое пристанище. Через 17 лет путешествия земляне приближаются к Юпитеру. Гравитация гигантской планеты меняет траекторию Земли, вызывает глобальные землетрясения и ставит под угрозу весь проект по выживанию человечества.

Качество: WEB-DLRip-AVC | NETFLIX Version |
Продолжительность: 02:05:30

Формат: MKV
Видео кодек: MPEG-4 AVC
Аудио кодек: AC3
Видео: 1024x402 (2.55:1), 24,000 fps, x264 ~1 216 kbps avg, 0.123 bit/pixel
Аудио #1: 48 kHz, AC3 Dolby Digital, 2 (L,R) ch, ~192.00 kbps avg | RUS (HDRezka Studio)
Аудио #2: 48 kHz, AC3 Dolby Digital, 2 (L,R) ch, ~256.00 kbps avg | RUS (Дольский)

Дата премьеры (мир): 5 февраля 2019
Дата премьеры (РФ):
Цифровой релиз:

Релиз:


[+] MediaInfo

Общее
Уникальный идентификатор                 : 310882166306596583328529282249952928757 (0xE9E1BA321336C87469CC24F508DD23F5)
Полное имя                               : F:OlLanDGroupThe.Wandering.Earth.2019.NF.WEB-DLRip(AVC).OlLanDGroup.mkv
Формат                                   : Matroska
Версия формата                           : Version 4 / Version 2
Размер файла                             : 1,46 Гбайт
Продолжительность                        : 2 ч. 5 м.
Общий поток                              : 1665 Кбит/сек
Название фильма                          : The.Wandering.Earth.2019   #TorpedoUK#
Дата кодирования                         : UTC 2019-06-09 13:24:49
Программа кодирования                    : mkvmerge v29.0.0 ('Like It Or Not') 64-bit
Библиотека кодирования                   : libebml v1.3.6 + libmatroska v1.4.9

Видео
Идентификатор                            : 1
Формат                                   : AVC
Формат/Информация                        : Advanced Video Codec
Профиль формата                          : High@L4.1
Параметр CABAC формата                   : Да
Параметр ReFrames формата                : 10 кадров
Идентификатор кодека                     : V_MPEG4/ISO/AVC
Продолжительность                        : 2 ч. 5 м.
Битрейт                                  : 1216 Кбит/сек
Ширина                                   : 1024 пикселя
Высота                                   : 402 пикселя
Соотношение сторон                       : 2,547
Режим частоты кадров                     : Постоянный
Частота кадров                           : 24,000 кадра/сек
Цветовое пространство                    : YUV
Субдискретизация насыщенности            : 4:2:0
Битовая глубина                          : 8 бит
Тип развёртки                            : Прогрессивная
Бит/(Пиксели*Кадры)                      : 0.123
Размер потока                            : 1,07 Гбайт (73%)
Библиотека кодирования                   : x264 core 146 r2538 121396c
Настройки программы                      : cabac=1 / ref=10 / deblock=1:-2:-3 / analyse=0x3:0x113 / me=umh / subme=10 / psy=1 / psy_rd=0.95:0.07 / mixed_ref=1 / me_range=48 / chroma_me=1 / trellis=2 / 8x8dct=1 / cqm=0 / deadzone=21,11 / fast_pskip=1 / chroma_qp_offset=-3 / threads=6 / lookahead_threads=1 / sliced_threads=0 / nr=0 / decimate=1 / interlaced=0 / bluray_compat=0 / constrained_intra=0 / bframes=11 / b_pyramid=2 / b_adapt=2 / b_bias=0 / direct=3 / weightb=1 / open_gop=0 / weightp=2 / keyint=240 / keyint_min=24 / scenecut=40 / intra_refresh=0 / rc_lookahead=40 / rc=2pass / mbtree=0 / bitrate=1216 / ratetol=1.0 / qcomp=0.60 / qpmin=0 / qpmax=69 / qpstep=4 / cplxblur=20.0 / qblur=0.5 / vbv_maxrate=50000 / vbv_bufsize=62500 / nal_hrd=none / filler=0 / ip_ratio=1.40 / pb_ratio=1.30 / aq=1:1.00
Default                                  : Да
Forced                                   : Нет

Аудио #1
Идентификатор                            : 2
Формат                                   : AC-3
Формат/Информация                        : Audio Coding 3
Расширение режима                        : CM (complete main)
Параметр Endianness формата              : Big
Идентификатор кодека                     : A_AC3
Продолжительность                        : 2 ч. 5 м.
Вид битрейта                             : Постоянный
Битрейт                                  : 192 Кбит/сек
Каналы                                   : 2 канала
Расположение каналов                     : Front: L R
Частота                                  : 48,0 КГц
Частота кадров                           : 31,250 кадров/сек (1536 spf)
Битовая глубина                          : 16 бит
Метод сжатия                             : С потерями
Размер потока                            : 172 Мбайт (12%)
Заголовок                                : MVO [HDRezka Studio]
Язык                                     : Russian
Default                                  : Да
Forced                                   : Нет

Аудио #2
Идентификатор                            : 3
Формат                                   : AC-3
Формат/Информация                        : Audio Coding 3
Расширение режима                        : CM (complete main)
Параметр Endianness формата              : Big
Идентификатор кодека                     : A_AC3
Продолжительность                        : 2 ч. 5 м.
Вид битрейта                             : Постоянный
Битрейт                                  : 256 Кбит/сек
Каналы                                   : 2 канала
Расположение каналов                     : Front: L R
Частота                                  : 48,0 КГц
Частота кадров                           : 31,250 кадров/сек (1536 spf)
Битовая глубина                          : 16 бит
Метод сжатия                             : С потерями
Размер потока                            : 229 Мбайт (15%)
Заголовок                                : AVO [Дольский]
Язык                                     : Russian
Default                                  : Нет
Forced                                   : Нет

Текст #1
Идентификатор                            : 4
Формат                                   : UTF-8
Идентификатор кодека                     : S_TEXT/UTF8
Идентификатор кодека/Информация          : UTF-8 Plain Text
Продолжительность                        : 1 ч. 57 м.
Битрейт                                  : 4 бит/сек
Count of elements                        : 88
Размер потока                            : 3,60 Кбайт (0%)
Заголовок                                : Forced
Язык                                     : Russian
Default                                  : Да
Forced                                   : Нет

Текст #2
Идентификатор                            : 5
Формат                                   : UTF-8
Идентификатор кодека                     : S_TEXT/UTF8
Идентификатор кодека/Информация          : UTF-8 Plain Text
Продолжительность                        : 1 ч. 59 м.
Битрейт                                  : 90 бит/сек
Count of elements                        : 1738
Размер потока                            : 78,9 Кбайт (0%)
Заголовок                                : Full
Язык                                     : Russian
Default                                  : Нет
Forced                                   : Нет

Текст #3
Идентификатор                            : 6
Формат                                   : UTF-8
Идентификатор кодека                     : S_TEXT/UTF8
Идентификатор кодека/Информация          : UTF-8 Plain Text
Продолжительность                        : 1 ч. 58 м.
Битрейт                                  : 59 бит/сек
Count of elements                        : 1653
Размер потока                            : 51,6 Кбайт (0%)
Заголовок                                : Full
Язык                                     : English
Default                                  : Нет
Forced                                   : Нет

Текст #4
Идентификатор                            : 7
Формат                                   : UTF-8
Идентификатор кодека                     : S_TEXT/UTF8
Идентификатор кодека/Информация          : UTF-8 Plain Text
Продолжительность                        : 1 ч. 58 м.
Битрейт                                  : 80 бит/сек
Count of elements                        : 2244
Размер потока                            : 69,7 Кбайт (0%)
Заголовок                                : SDH
Язык                                     : English
Default                                  : Нет
Forced                                   : Нет



Скриншоты:
[+] Всего файлов в раздаче - 1:
The.Wandering.Earth.2019.NF.WEB-DLRip(AVC).OlLanDGroup.mkv1.46 GB

Показать еще раздачи по запросу блуждающая:
2019-06-10 U Блуждающая Земля / Liu lang di qiu / The Wandering Earth (2019) WEB-DLRip | HDRezka Studio 1.95 GB ↑ 24 ↓ 13
2019-06-04 U Блуждающая Земля / Liu lang di qiu / The Wandering Earth (2019) WEBRip 720p | P, A 4.30 GB ↑ 178 ↓ 74
2019-06-04 U Блуждающая Земля / Liu lang di qiu / The Wandering Earth (2019) WEBRip 1080p | HDRezka Studio 2К7.18 GB ↑ 165 ↓ 84
2019-05-06 U Блуждающая Земля / Liu lang di qiu / The Wandering Earth (2019) WEB-DL 1080p | L2, A 4.50 GB ↑ 59 ↓ 20
2019-05-04 U Блуждающая Земля / Liu lang di qiu / The Wandering Earth (2019) WEB-DLRip от ExKinoRay | L2 753.25 MB ↑ 33 ↓ 8
2019-05-04 U Блуждающая Земля / Liu lang di qiu / The Wandering Earth (2019) WEB-DLRip-AVC от ExKinoRay | L2 746.29 MB ↑ 45 ↓ 10
2019-05-03 U Блуждающая Земля / Liu lang di qiu / The Wandering Earth (2019) WEB-DL-HEVC 1080p | L2, A 3.76 GB ↑ 81 ↓ 16

Отзывы
Зарегистрируйтесь чтобы добавить комментарий.
Обратная связь
Copyleft ©