↑↓Torrent.by
Поиск
Логин: Регистрация
Пароль: Восстановить пароль
Загрузка...

Игры разумов / The Professor and the Madman (2019) WEB-DL 1080p от ExKinoRay | iTunes

Скачать igry-razumov-the-professor-and-madman-2019-web-dl-1080p-ot-exkinoray-itunes.torrent
U Магнитная ссылка Размер: 4.64 GB Раздают: 81 Качают: 49 Добавлен: 2019-06-10 08:34:00
Игры разумов / The Professor and the Madman (2019) WEB-DL 1080p от ExKinoRay | iTunes

Название: Игры разумов
Оригинальное название: The Professor and the Madman
Год выпуска: 2019
Жанр:  Триллер, драма, детектив, биография
Режиссер: Фарад Сафиниа
В ролях: Мэл Гибсон, Шон Пенн, Натали Дормер, Джереми Ирвин, Дженнифер Или, Стив Кугэн, Стивен Диллэйн, Эдди Марсан, Йоан Гриффит, Лоуренс Фокс

Описание:   Англия середины XIX века. Оксфордский профессор Джеймс Мюррей работает над первым в истории словарем английского языка, а его главным соратником становится заключенный психиатрической клиники для особо опасных преступников - доктор Уильям Майнор. Гений Майнор или сумасшедший, хитроумный преступник, ведущий дерзкую игру, чтобы вырваться на свободу, или одержимый ученый? И кто тогда Мюррей: верный друг, жертва манипуляции или организатор сговора?

Выпущено: Ирландия, Fastnet Films, 22h22, Caviar Antwerp NV
Продолжительность: 02:04:27
Перевод: Дублированный | iTunes

БЕЗ КАКОЙ-ЛИБО РЕКЛАМЫ!

Формат: MKV
Качество: WEB-DL 1080p
Видео: MPEG-4 AVC, 1912x798 (2.40:1), 24.000 fps, 4471 Kbps, 0.122 bit/pixel
Аудио 1: 48 kHz, AC3, 5.1, 384 Kbps | iTunes | RUS |
Аудио 2: 48 kHz, AC3, 5.1, 384 Kbps | Оригинал |  ENG |

Релиз:

Автор релиза:


[+] ОтчетМедиаИнфо
General
Unique ID                                : 245007225381214916426371670428276594572 (0xB852ACD9993F1065BC563B0049D9978C)
Complete name                            : F:The.Professor.and.the.Madman.2018.Dub.1080p.WEB-DL.ExKinoRay.mkv
Format                                   : Matroska
Format version                           : Version 2
File size                                : 4.64 GiB
Duration                                 : 2 h 4 min
Overall bit rate                         : 5 341 kb/s
Movie name                               : The Professor and the Madman 2019 from ExKinoRay
Encoded date                             : UTC 2019-06-10 02:52:20
Writing application                      : mkvmerge v5.6.0 ('Kenya Kane') built on May 27 2012 16:44:04
Writing library                          : libebml v1.2.3 + libmatroska v1.3.0

Video
ID                                       : 1
Format                                   : AVC
Format/Info                              : Advanced Video Codec
Format profile                           : High@L4
Format settings, CABAC                   : Yes
Format settings, ReFrames                : 5 frames
Codec ID                                 : V_MPEG4/ISO/AVC
Duration                                 : 2 h 4 min
Bit rate                                 : 4 467 kb/s
Width                                    : 1 912 pixels
Height                                   : 798 pixels
Display aspect ratio                     : 2.40:1
Frame rate mode                          : Constant
Frame rate                               : 24.000 FPS
Color space                              : YUV
Chroma subsampling                       : 4:2:0
Bit depth                                : 8 bits
Scan type                                : Progressive
Bits/(Pixel*Frame)                       : 0.122
Stream size                              : 3.88 GiB (84%)
Title                                    : The.Professor.and.the.Madman.2019.1080p
Language                                 : English
Default                                  : Yes
Forced                                   : No
Color range                              : Limited
Color primaries                          : BT.709
Transfer characteristics                 : BT.709
Matrix coefficients                      : BT.709

Audio #1
ID                                       : 2
Format                                   : AC-3
Format/Info                              : Audio Coding 3
Mode extension                           : CM (complete main)
Format settings, Endianness              : Big
Codec ID                                 : A_AC3
Duration                                 : 2 h 4 min
Bit rate mode                            : Constant
Bit rate                                 : 384 kb/s
Channel(s)                               : 6 channels
Channel positions                        : Front: L C R, Side: L R, LFE
Sampling rate                            : 48.0 kHz
Frame rate                               : 31.250 FPS (1536 spf)
Compression mode                         : Lossy
Delay relative to video                  : -42 ms
Stream size                              : 342 MiB (7%)
Title                                    : Dub (iTunes)
Language                                 : Russian
Default                                  : Yes
Forced                                   : No

Audio #2
ID                                       : 3
Format                                   : AC-3
Format/Info                              : Audio Coding 3
Mode extension                           : CM (complete main)
Format settings, Endianness              : Big
Codec ID                                 : A_AC3
Duration                                 : 2 h 4 min
Bit rate mode                            : Constant
Bit rate                                 : 384 kb/s
Channel(s)                               : 6 channels
Channel positions                        : Front: L C R, Side: L R, LFE
Sampling rate                            : 48.0 kHz
Frame rate                               : 31.250 FPS (1536 spf)
Compression mode                         : Lossy
Delay relative to video                  : -42 ms
Stream size                              : 342 MiB (7%)
Language                                 : English
Default                                  : No
Forced                                   : No

Menu
00:00:00.000                             : en:1
00:10:52.000                             : en:2
00:18:58.000                             : en:3
00:27:16.000                             : en:4
00:36:13.000                             : en:5
00:46:23.000                             : en:6
00:57:00.000                             : en:7
01:06:02.000                             : en:8
01:16:08.000                             : en:9
01:26:02.000                             : en:10
01:34:54.000                             : en:11
01:44:13.000                             : en:12
01:53:36.000                             : en:13
01:59:18.000                             : en:14




Скриншоты:
[+] Всего файлов в раздаче - 1:
The.Professor.and.the.Madman.2018.Dub.1080p.WEB-DL.ExKinoRay.mkv4.64 GB

Показать еще раздачи по запросу игры:
2019-06-16 U Игры разумов / The Professor and the Madman (2019) BDRip от Twister & ExKinoRay | iTunes 2.13 GB ↑ 90 ↓ 18
2019-06-13 U Игры разумов / The Professor and the Madman (2019) BDRemux 1080p от селезень | D, P | iTunes 27.01 GB ↑ 64 ↓ 20
2019-06-13 U Игры разумов / The Professor and the Madman (2019) BDRip от MegaPeer | iTunes 2.12 GB ↑ 65 ↓ 10
2019-06-13 U Игры разумов / The Professor and the Madman (2019) BDRip 1080p от селезень | D, P | iTunes 9.77 GB ↑ 93 ↓ 32
2019-06-12 U Игры разумов / The Professor and the Madman (2019) BDRip от MegaPeer | iTunes 1.46 GB ↑ 101 ↓ 34
2019-06-11 U Игры разумов / The Professor and the Madman (2019) WEB-DLRip-AVC | iTunes 1.47 GB ↑ 62 ↓ 17
2019-06-11 U Игры разумов / The Professor and the Madman (2019) WEB-DL-HEVC 1080p | iTunes 4.21 GB ↑ 74 ↓ 23

Отзывы
Зарегистрируйтесь чтобы добавить комментарий.
Обратная связь
Copyleft ©