↑↓Torrent.by
Поиск
Логин: Регистрация
Пароль: Восстановить пароль
Загрузка...

Игра престолов: Последний дозор / Game of Thrones: The Last Watch (2019) WEB-DLRip-AVC от ExKinoRay | Кравец, HDRezka Studio

Скачать igra-prestolov-posledniy-dozor-game-of-thrones-the-last-watch-2019-web-dlrip-avc-ot-exkinoray-kravec-hdrezka-studio.torrent
U Магнитная ссылка Размер: 2.90 GB Раздают: 45 Качают: 24 Добавлен: 2019-06-10 08:34:27
Игра престолов: Последний дозор / Game of Thrones: The Last Watch (2019) WEB-DLRip-AVC от ExKinoRay | Кравец, HDRezka Studio

Название: Игра престолов. Последний дозор
Оригинальное название: Game of Thrones: The Last Watch
Год выпуска: 2019
Жанр:  Документальный
Режиссер: Джини Финлэй
В ролях: Алфи Аллен, Джейкоб Андерсон, Дэвид Бениофф, Гвендолин Кристи, Эмилия Кларк, Николай Костер-Валдау, Лиам Каннингэм, Питер Динклэйдж, Натали Эммануэль, Владимир «Фурдо» Фурдик

О фильме:Документальный фильм, раскрывающий особенности создания сериала «Игра престолов». Режиссёру удалось получить беспрецедентный доступ к закулисью фэнтези-саги. Этот фильм — рассказ о группе людей, которые своими руками создали мир, захвативший человечество. В этой истории есть все: пот и слезы, грязь и кровь, а также достижение, казалось бы, немыслимых высот. Картина получилась подробным и искренним отчетом о трудностях производства, с которыми столкнулась съемочная группа, выстоявшая в битве с экстремальными погодными условиями, горящими дедлайнами и страстным желанием фанатов выведать спойлеры финального сезона.

Страна: США
Студия: HBO
Продолжительность: 01:53:05
Перевод: Профессиональный (многоголосый закадровый) | Студия "Кравец"
профессиональный (многоголосый закадровый) HDRezka Studio
Субтитры: Русские (форсированные на надписи и прочее (Наталья Раевская)), английские

Формат: MKV
Качество: WEB-DLRip-AVC
Видео: MPEG-4 AVC, 1024х576 (16:9), 2450 Kbit/s, 23.976 fps, 0,173 bpp
Звук:
Аудио 1: 48 kHz, AC3, 5.1 ch, 384 Kbps | Студия "Кравец"| RUS
Аудио 2: 48 kHz, AC3, 2.0 ch, 256 Kbps | HDRezka Studio | RUS
Аудио 3: 48 kHz, AC3, 2.0 ch, 192 Kbps | UKR
Аудио 4: 48 kHz, AC3, 5.1 ch, 384 Kbps | ENG

Релиз:

Автор релиза:
[+] MediaInfo
General
Unique ID                                : 238687243801762519864647060423629232765 (0xB3917DB35CD7C7819C60FC7614825A7D)
Complete name                            : F:Game.of.Thrones.The.Last.Watch.2019.WEB-DL.AVC.ExKinoRay.mkv
Format                                   : Matroska
Format version                           : Version 2
File size                                : 2.90 GiB
Duration                                 : 1 h 53 min
Overall bit rate                         : 3 666 kb/s
Movie name                               : Game of Thrones The Last Watch 2019 from ExKinoRay
Encoded date                             : UTC 2019-06-09 20:34:00
Writing application                      : mkvmerge v5.6.0 ('Kenya Kane') built on May 27 2012 16:44:04
Writing library                          : libebml v1.2.3 + libmatroska v1.3.0

Video
ID                                       : 1
Format                                   : AVC
Format/Info                              : Advanced Video Codec
Format profile                           : High@L4.1
Format settings, CABAC                   : Yes
Format settings, ReFrames                : 11 frames
Codec ID                                 : V_MPEG4/ISO/AVC
Duration                                 : 1 h 53 min
Bit rate                                 : 2 450 kb/s
Width                                    : 1 024 pixels
Height                                   : 576 pixels
Display aspect ratio                     : 16:9
Frame rate mode                          : Constant
Frame rate                               : 23.976 (23976/1000) FPS
Color space                              : YUV
Chroma subsampling                       : 4:2:0
Bit depth                                : 8 bits
Scan type                                : Progressive
Bits/(Pixel*Frame)                       : 0.173
Stream size                              : 1.88 GiB (65%)
Title                                    : Enigma
Writing library                          : x264 core 152 r2851 ba24899
Encoding settings                        : cabac=1 / ref=11 / deblock=1:-2:-2 / analyse=0x3:0x113 / me=umh / subme=10 / psy=1 / psy_rd=1.05:0.10 / mixed_ref=1 / me_range=32 / chroma_me=1 / trellis=2 / 8x8dct=1 / cqm=0 / deadzone=21,11 / fast_pskip=0 / chroma_qp_offset=-3 / threads=12 / lookahead_threads=3 / sliced_threads=0 / nr=0 / decimate=0 / interlaced=0 / bluray_compat=0 / constrained_intra=0 / bframes=10 / b_pyramid=2 / b_adapt=2 / b_bias=0 / direct=3 / weightb=1 / open_gop=0 / weightp=2 / keyint=240 / keyint_min=23 / scenecut=40 / intra_refresh=0 / rc=2pass / mbtree=0 / bitrate=2450 / ratetol=1.0 / qcomp=0.60 / qpmin=0 / qpmax=51 / qpstep=4 / cplxblur=20.0 / qblur=0.5 / ip_ratio=1.30 / pb_ratio=1.20 / aq=3:0.80
Language                                 : English
Default                                  : Yes
Forced                                   : No
Color range                              : Limited
Color primaries                          : BT.709
Transfer characteristics                 : BT.709
Matrix coefficients                      : BT.709

Audio #1
ID                                       : 2
Format                                   : AC-3
Format/Info                              : Audio Coding 3
Mode extension                           : CM (complete main)
Format settings, Endianness              : Big
Codec ID                                 : A_AC3
Duration                                 : 1 h 53 min
Bit rate mode                            : Constant
Bit rate                                 : 384 kb/s
Channel(s)                               : 6 channels
Channel positions                        : Front: L C R, Side: L R, LFE
Sampling rate                            : 48.0 kHz
Frame rate                               : 31.250 FPS (1536 spf)
Compression mode                         : Lossy
Stream size                              : 311 MiB (10%)
Title                                    : MVO (Amedia)
Language                                 : Russian
Default                                  : Yes
Forced                                   : No

Audio #2
ID                                       : 3
Format                                   : AC-3
Format/Info                              : Audio Coding 3
Mode extension                           : CM (complete main)
Format settings, Endianness              : Big
Codec ID                                 : A_AC3
Duration                                 : 1 h 53 min
Bit rate mode                            : Constant
Bit rate                                 : 256 kb/s
Channel(s)                               : 2 channels
Channel positions                        : Front: L R
Sampling rate                            : 48.0 kHz
Frame rate                               : 31.250 FPS (1536 spf)
Compression mode                         : Lossy
Stream size                              : 207 MiB (7%)
Title                                    : MVO (HDRezka studio)
Language                                 : Russian
Default                                  : No
Forced                                   : No

Audio #3
ID                                       : 4
Format                                   : AC-3
Format/Info                              : Audio Coding 3
Mode extension                           : CM (complete main)
Format settings, Endianness              : Big
Codec ID                                 : A_AC3
Duration                                 : 1 h 53 min
Bit rate mode                            : Constant
Bit rate                                 : 192 kb/s
Channel(s)                               : 2 channels
Channel positions                        : Front: L R
Sampling rate                            : 48.0 kHz
Frame rate                               : 31.250 FPS (1536 spf)
Compression mode                         : Lossy
Stream size                              : 155 MiB (5%)
Title                                    : Dniprofilm
Language                                 : Ukrainian
Default                                  : No
Forced                                   : No

Audio #4
ID                                       : 5
Format                                   : AC-3
Format/Info                              : Audio Coding 3
Mode extension                           : CM (complete main)
Format settings, Endianness              : Big
Codec ID                                 : A_AC3
Duration                                 : 1 h 53 min
Bit rate mode                            : Constant
Bit rate                                 : 384 kb/s
Channel(s)                               : 6 channels
Channel positions                        : Front: L C R, Side: L R, LFE
Sampling rate                            : 48.0 kHz
Frame rate                               : 31.250 FPS (1536 spf)
Compression mode                         : Lossy
Stream size                              : 311 MiB (10%)
Language                                 : English
Default                                  : No
Forced                                   : No

Text #1
ID                                       : 6
Format                                   : UTF-8
Codec ID                                 : S_TEXT/UTF8
Codec ID/Info                            : UTF-8 Plain Text
Title                                    : Forced (Enigma)
Language                                 : Russian
Default                                  : Yes
Forced                                   : No

Text #2
ID                                       : 7
Format                                   : UTF-8
Codec ID                                 : S_TEXT/UTF8
Codec ID/Info                            : UTF-8 Plain Text
Language                                 : English
Default                                  : No
Forced                                   : No




Скриншоты:
[+] Всего файлов в раздаче - 1:
Game.of.Thrones.The.Last.Watch.2019.WEB-DL.AVC.ExKinoRay.mkv2.90 GB

Показать еще раздачи по запросу игра:
2019-05-28 U Игра престолов / Game of Thrones [S08] (2019) WEB-DL 720p от Files-x | Кравец 13.12 GB ↑ 122 ↓ 398
2019-05-28 U Игра престолов: Последний дозор / Game of Thrones: The Last Watch (2019) WEB-DL 1080p | P 8.09 GB ↑ 133 ↓ 104
2019-05-27 U Игра престолов / Game of Thrones [S01-08] (2011-2019) BDRip, WEB-DLRip от qqss44 | LostFilm 55.77 GB ↑ 43 ↓ 116
2019-05-27 U Игра престолов / Game of Thrones [S08] (2019) WEB-DL 1080p | Кравец 23.95 GB ↑ 45 ↓ 129
2019-05-27 U Игра престолов / Game of Thrones [S08] (2019) WEB-DL 1080p от qqss44 & MegaPeer | LostFilm 25.43 GB ↑ 114 ↓ 113
2019-05-27 U Игра престолов / Game of Thrones [S08] (2019) WEB-DL 720p от qqss44 & MegaPeer | LostFilm 12.93 GB ↑ 132 ↓ 113
2019-05-27 U Игра престолов / Game of Thrones [S08] (2019) WEB-DLRip от qqss44 & MegaPeer | LostFilm 5.11 GB ↑ 143 ↓ 124

Отзывы
Зарегистрируйтесь чтобы добавить комментарий.
Обратная связь
Copyleft ©