↑↓Torrent.by
Поиск
Логин: Регистрация
Пароль: Восстановить пароль
Загрузка...

Золотая молодежь / Une jeunesse doree (2019) WEBRip 720p | P

Скачать zolotaya-molodezh-une-jeunesse-doree-2019-webrip-720p-p.torrent
U Магнитная ссылка Размер: 3.53 GB Раздают: 32 Качают: 17 Добавлен: 2019-06-10 08:34:31
Золотая молодежь / Une jeunesse doree (2019) WEBRip  720p | P

Название: Золотая молодежь
Оригинальное название: Une jeunesse doree
Год выхода: 2019
Жанр: драма
Режиссер: Ева Йонеско
В ролях: Изабель Юппер, Галатеа Беллуджи, Мельвиль Пупо, Лукас Йонеско, Ален-Фабьен Делон, Нассим Гвизани, Юдит Зинс, Манал Исса, Брайан Скотт Бэгли, Бенуа Соулз

О фильме:
Роза и Мишель — молодая влюбленная пара. Каждую ночь они находятся в поисках приключений, блуждая по ночным клубам и главным вечеринкам города. На одной из них они встречают необычную супружескую пару. Повинуясь неудержимому желанию прочувствовать атмосферу настоящей свободы и любви, они погружаются в новый мир мечтаний, соблазнов и обманов…

Страна: Франция, Бельгия
Студия: Canal+ [fr]
Продолжительность: 01:47:41
Перевод: профессиональный многоголосый, закадровый [чистый звук]

Файл
Кодек: H.264
Качество: WEBRip 720p
Видео: AVC, 1280x692@960x692 (1.850), 25 fps ~ 3960 Kbps
Звук:
AC3, 48 KHz, 2 ch ~ 256 Kb/s (русский)
AC3, 48 KHz, 6 ch ~ 384 Kb/s (французский)
Субтитры: отсутствуют


[+] MI:

Общее
Уникальный идентификатор : 223828726080386550159634728274436314572 (0xA863D8378619FCDAA5819DA0B38855CC)
Полное имя : Q:TorFUne.Jeunesse.Dorée.2018.720p.WEB-EXTREME.mkv
Формат : Matroska
Версия формата : Version 2
Размер файла : 3,53 Гбайт
Продолжительность : 1 ч. 47 м.
Общий поток : 4696 Кбит/сек
Дата кодирования : UTC 2019-06-09 17:29:03
Программа кодирования : mkvmerge v5.4.0 ('Piper') built on Mar 10 2012 13:34:39
Библиотека кодирования : libebml v1.2.3 + libmatroska v1.3.0
DURATION : 01:47:41.472000000
NUMBER_OF_FRAMES : 201921
NUMBER_OF_BYTES : 310150656
_STATISTICS_WRITING_APP : mkvmerge v33.0.0 ('A Little Bit of Madness') 64-bit
_STATISTICS_WRITING_DATE_UTC : 2019-05-16 01:47:51
_STATISTICS_TAGS : BPS DURATION NUMBER_OF_FRAMES NUMBER_OF_BYTES

Видео
Идентификатор : 1
Формат : AVC
Формат/Информация : Advanced Video Codec
Профиль формата : Main@L3.1
Параметр CABAC формата : Нет
Параметр ReFrames формата : 2 кадра
Идентификатор кодека : V_MPEG4/ISO/AVC
Продолжительность : 1 ч. 47 м.
Битрейт : 3962 Кбит/сек
Ширина : 960 пикселей
Высота : 692 пикселя
Соотношение сторон : 1,850
Частота кадров : 25,000 кадров/сек
Цветовое пространство : YUV
Субдискретизация насыщенности : 4:2:0
Битовая глубина : 8 бит
Тип развёртки : Прогрессивная
Бит/(Пиксели*Кадры) : 0.239
Размер потока : 2,98 Гбайт (84%)
Язык : English
Default : Да
Forced : Нет
Основные цвета : BT.709-5, BT.1361, IEC 61966-2-4, SMPTE RP177
Характеристики трансфера : BT.709-5, BT.1361
Коэффициенты матрицы : BT.709-5, BT.1361, IEC 61966-2-4 709, SMPTE RP177

Аудио #1
Идентификатор : 2
Формат : AC-3
Формат/Информация : Audio Coding 3
Расширение режима : CM (complete main)
Идентификатор кодека : A_AC3
Продолжительность : 1 ч. 47 м.
Вид битрейта : Постоянный
Битрейт : 256 Кбит/сек
Каналы : 2 канала
Расположение каналов : Front: L R
Частота : 48,0 КГц
Битовая глубина : 16 бит
Метод сжатия : С потерями
Задержка видео : -40 мс.
Размер потока : 197 Мбайт (5%)
Заголовок : MVO
Язык : Russian
Default : Да
Forced : Нет

Аудио #2
Идентификатор : 3
Формат : AC-3
Формат/Информация : Audio Coding 3
Расширение режима : CM (complete main)
Идентификатор кодека : A_AC3
Продолжительность : 1 ч. 47 м.
Вид битрейта : Постоянный
Битрейт : 384 Кбит/сек
Каналы : 6 каналов
Расположение каналов : Front: L C R, Side: L R, LFE
Частота : 48,0 КГц
Битовая глубина : 16 бит
Метод сжатия : С потерями
Задержка видео : -40 мс.
Размер потока : 296 Мбайт (8%)
Язык : French
Default : Нет
Forced : Нет

Меню
00:00:00.000 : en:Chapitre 1
00:10:37.680 : en:Chapitre 2
00:19:39.600 : en:Chapitre 3
00:32:58.120 : en:Chapitre 4
00:42:38.440 : en:Chapitre 5
00:54:47.640 : en:Chapitre 6
01:05:32.279 : en:Chapitre 7
01:15:15.078 : en:Chapitre 8
01:26:46.518 : en:Chapitre 9
01:38:55.318 : en:Chapitre 10



Скриншоты:
[+] Всего файлов в раздаче - 1:
Une.Jeunesse.Dorée.2018.720p.WEB-EXTREME.mkv3.53 GB

Показать еще раздачи по запросу золотая:
2019-06-09 U Золотая молодежь / Une jeunesse dorée (2019) WEBRip 1080p | P 4.11 GB ↑ 53 ↓ 21
2019-04-29 U Следствие вели... с Леонидом Каневским. Золотая паутина [эфир от 28.04] (2019) WEBRip 1080p от ExKinoRay 1.75 GB ↑ 72 ↓ 11
2018-09-05 U Серия книг - Золотая коллекция фантастики [25 книг] (2013-2018) FB2 103.90 MB ↑ 138 ↓ 36
2018-06-12 U Серия книг - Золотая коллекция фантастики [24 книги] (2013-2018) FB2 99.22 MB ↑ 528 ↓ 30
2018-05-20 U Золотая парочка [01-02 из 02] (2017) WEB-DLRip от GeneralFilm 745.43 MB ↑ 52 ↓ 17
2018-05-19 U Золотая парочка [01-02 из 02] (2017) WEB-DLRip-AVC от Files-x 1.11 GB ↑ 81 ↓ 39
2018-05-19 U Золотая парочка [01-02 из 02] (2017) WEB-DLRip от Files-x 1.08 GB ↑ 153 ↓ 64

Отзывы
Зарегистрируйтесь чтобы добавить комментарий.
Обратная связь
Copyleft ©