↑↓torrent.by
Поиск
Логин: Регистрация
Пароль: Восстановить пароль

Человек без паспорта (1965) SATRip-AVC от New-Team

Скачать chelovek-bez-pasporta-1965-satrip-avc-ot-new-team.torrent
U Магнитная ссылка Размер: 744.22 MB Раздают: 20 Качают: 13 Добавлен: 2021-09-08 08:15:28
Человек без паспорта (1965) SATRip-AVC от New-Team

Страна: СССР
Производство: Мосфильм

Жанр:  приключения, шпионский фильм
Год выпуска: 1965
Продолжительность: 01:33:25

Перевод: не требуется
Оригинальная аудиодорожка: русский
Cубтитры: нет

Режиссер: Анатолий Бобровский

В ролях:
Владимир Заманский, Геннадий Фролов, Николай Гриценко, Лионелла Пырьева, Алексей Эйбоженко, Михаил Погоржельский, Владимир Осенев, Константин Тыртов, Алексей Свекло, Виктор Павлов, Светлана Коновалова...
Об актёрах подробней

Описание:
Группе советских контрразведчиков удается выследить и обезвредить шпионов, засланных на территорию нашей страны для получения секретной информации о строительстве в Приозерске крупного военно-промышленного комплекса.


[+] MediaInfo

Общее
Полное имя                               : Человек.без.паспорта.1965.SATRip-AVC_[New-team]_by_AVP_Studio.mkv
Формат                                   : Matroska
Версия формата                           : Version 2
Размер файла                             : 744 Мбайт
Продолжительность                        : 1 ч. 33 м.
Общий поток                              : 1 114 Кбит/сек
Дата кодирования                         : UTC 2021-09-03 15:39:48
Программа кодирования                    : mkvmerge v6.9.1 ('Blue Panther') 32bit built on Apr 18 2014 18:15:44
Библиотека кодирования                   : libebml v1.3.0 + libmatroska v1.4.1

Видео
Идентификатор                            : 1
Формат                                   : AVC
Формат/Информация                        : Advanced Video Codec
Профиль формата                          : High@L4.1
Настройки формата                        : CABAC / 8 Ref Frames
Параметр CABAC формата                   : Да
Параметр RefFrames формата               : 8 кадров
Идентификатор кодека                     : V_MPEG4/ISO/AVC
Продолжительность                        : 1 ч. 33 м.
Битрейт                                  : 920 Кбит/сек
Ширина                                   : 704 пикселя
Высота                                   : 404 пикселя
Соотношение сторон                       : 2,2:1
Режим частоты кадров                     : Постоянный
Частота кадров                           : 25,000 кадров/сек
Цветовое пространство                    : YUV
Субдискретизация насыщенности            : 4:2:0
Битовая глубина                          : 8 бит
Тип развёртки                            : Прогрессивная
Бит/(Пиксели*Кадры)                      : 0.129
Размер потока                            : 601 Мбайт (81%)
Библиотека кодирования                   : x264 core 160 r3000 33f9e14
Настройки программы                      : cabac=1 / ref=8 / deblock=1:-3:-3 / analyse=0x3:0x133 / me=umh / subme=10 / psy=1 / psy_rd=1.00:0.00 / mixed_ref=1 / me_range=32 / chroma_me=1 / trellis=2 / 8x8dct=1 / cqm=0 / deadzone=21,11 / fast_pskip=1 / chroma_qp_offset=-2 / threads=6 / lookahead_threads=1 / sliced_threads=0 / nr=0 / decimate=0 / interlaced=0 / bluray_compat=0 / constrained_intra=0 / bframes=8 / b_pyramid=2 / b_adapt=2 / b_bias=0 / direct=3 / weightb=1 / open_gop=0 / weightp=2 / keyint=240 / keyint_min=24 / scenecut=40 / intra_refresh=0 / rc=2pass / mbtree=0 / bitrate=920 / ratetol=1.0 / qcomp=0.60 / qpmin=0 / qpmax=69 / qpstep=4 / cplxblur=20.0 / qblur=0.5 / ip_ratio=1.40 / pb_ratio=1.30 / aq=1:1.00
Default                                  : Да
Forced                                   : Нет

Аудио
Идентификатор                            : 2
Формат                                   : AC-3
Формат/Информация                        : Audio Coding 3
Коммерческое название                    : Dolby Digital
Идентификатор кодека                     : A_AC3
Продолжительность                        : 1 ч. 33 м.
Вид битрейта                             : Постоянный
Битрейт                                  : 192 Кбит/сек
Каналы                                   : 2 канала
Channel layout                           : L R
Частота                                  : 48,0 КГц
Частота кадров                           : 31,250 кадров/сек (1536 SPF)
Метод сжатия                             : С потерями
Размер потока                            : 128 Мбайт (17%)
Default                                  : Да
Forced                                   : Нет



Скриншоты:
[+] Всего файлов в раздаче - 1:
Человек.без.паспорта.1965.SATRip-AVC_[New-team]_by_AVP_Studio.mkv744.22 MB

Показать еще раздачи по запросу человек:
Вчера U Самый сильный человек в мире / The Strongest Man In The World (1975) BDRip-AVC | L1 2.18 GB ↑ 14 ↓ 5
2021-08-18 U Водный человек / Водяной / The Water Man (2021) BDRip 720p от MegaPeer | Netflix 3.05 GB ↑ 21 ↓ 18
2021-08-18 U Водный человек / Водяной / The Water Man (2021) BDRip-AVC от ExKinoRay | Netflix 2.10 GB ↑ 8 ↓ 5
2021-08-18 U Свой человек [01-10 из 10] (2005) WEBRip-AVC 6.69 GB ↑ 22 ↓ 11
2021-08-18 U Водный человек / Водяной / The Water Man (2021) BDRip от Twister & ExKinoRay | Netflix 1.46 GB ↑ 16 ↓ 7
2021-08-18 U Водный человек / Водяной / The Water Man (2021) HDRip-AVC | Netflix 1.81 GB ↑ 27 ↓ 5
2021-08-18 U Водный человек / Водяной / The Water Man (2021) BDRip 1080p от MegaPeer | Netflix 6.56 GB ↑ 36 ↓ 11

Отзывы
Зарегистрируйтесь чтобы добавить комментарий.
Загрузите программу
  byTorrent
Обратная связь
Copyleft ©