↑↓Torrent.by
Поиск
Логин: Регистрация
Пароль: Восстановить пароль
Загрузка...

Игры разумов / The Professor and the Madman (2018) WEB-DL 1080p | iTunes

Скачать igry-razumov-the-professor-and-madman-2018-web-dl-1080p-itunes.torrent
U Магнитная ссылка Размер: 5.22 GB Раздают: 119 Качают: 66 Добавлен: 2019-06-10 08:34:59
Игры разумов / The Professor and the Madman (2018) WEB-DL 1080p | iTunes

«Гений или сумасшедший? Преступник или жертва?»

Название: Игры разумов  
Оригинальное название: The Professor and the Madman
Год выхода: 2018
Жанр: Триллер, драма, детектив, биография
Режиссер: Фарад Сафиниа
В ролях: Мэл Гибсон, Шон Пенн, Натали Дормер, Джереми Ирвин, Дженнифер Или, Стив Кугэн, Стивен Диллэйн, Эдди Марсан, Йоан Гриффит, Лоуренс Фокс

О фильме:
Англия середины XIX века. Оксфордский профессор Джеймс Мюррей работает над первым в истории словарем английского языка, а его главным соратником становится заключенный психиатрической клиники для особо опасных преступников — доктор Уильям Майнор. Гений Майнор или сумасшедший, хитроумный преступник, ведущий дерзкую игру, чтобы вырваться на свободу, или одержимый ученый? И кто тогда Мюррей: верный друг, жертва манипуляции или организатор сговора?

Страна: Ирландия
Студия: 22h22, Caviar Antwerp NV, Definition Films, Fastnet Films, Icon Entertainmnet International, Zik Zak Filmworks
Продолжительность: 02:04:41
Перевод:
     • Профессиональный (полное дублирование) | iTunes

Файл
Качество: WEB-DL 1080p | Amazon
Формат: MKV
Кодек: MPEG-4 AVC
Видео: 1920x1080 (16:9), 23,976 fps, MPEG-4 AVC ~ 4967 Kbps avg, 0.100 bit/pixel
Аудио:  AC3, 48 kHz, 6 ch, ~384.00 kbps avg | русский |iTunes
Аудио:  E-AC3, 48 kHz, 6 ch, ~640.00 kbps avg | английский | Оригинал

Субтитры: Английские (Full, SDH)


[+] Инфо-файл
Общее
Уникальный идентификатор                 : 46244457953836891851033135738484926945 (0x22CA5BCF681D88732C858BFC460FA9E1)
Полное имя                               : The.Professor.and.the.Madman.2019.1080p.AMZN.WEB-DL.DDP5.1.H.264.Rus.Eng.mkv
Формат                                   : Matroska
Версия формата                           : Version 4 / Version 2
Размер файла                             : 5,22 Гбайт
Продолжительность                        : 2 ч. 4 м.
Общий поток                              : 5993 Кбит/сек
Название фильма                          : Игры разумов / The Professor and the Madman (2018)
Дата кодирования                         : UTC 2019-06-10 03:52:22
Программа кодирования                    : mkvmerge v27.0.0 ('Metropolis') 64-bit
Библиотека кодирования                   : libebml v1.3.6 + libmatroska v1.4.9

Видео
Идентификатор                            : 1
Формат                                   : AVC
Формат/Информация                        : Advanced Video Codec
Профиль формата                          : High@L4
Настройки формата                        : CABAC / 4 Ref Frames
Параметр CABAC формата                   : Да
Параметр RefFrames формата               : 4 кадра
Идентификатор кодека                     : V_MPEG4/ISO/AVC
Продолжительность                        : 2 ч. 4 м.
Вид битрейта                             : Постоянный
Битрейт                                  : 4967 Кбит/сек
Номинальный битрейт                      : 10000 Кбит/сек
Ширина                                   : 1920 пикселей
Высота                                   : 1080 пикселей
Соотношение сторон                       : 16:9
Режим частоты кадров                     : Постоянный
Частота кадров                           : 23,976 (24000/1001) кадра/сек
Цветовое пространство                    : YUV
Субдискретизация насыщенности            : 4:2:0
Битовая глубина                          : 8 бит
Тип развёртки                            : Прогрессивная
Бит/(Пиксели*Кадры)                      : 0.100
Размер потока                            : 4,33 Гбайт (83%)
Заголовок                                : The.Professor.and.the.Madman.2019.1080p.AMZN.WEB-DL.DDP5.1.H.264.Rus.Eng
Default                                  : Да
Forced                                   : Нет
Цветовой диапазон                        : Limited
Основные цвета                           : BT.709
Характеристики трансфера                 : BT.709
Коэффициенты матрицы                     : BT.709

Аудио #1
Идентификатор                            : 2
Формат                                   : AC-3
Формат/Информация                        : Audio Coding 3
Идентификатор кодека                     : A_AC3
Продолжительность                        : 2 ч. 4 м.
Вид битрейта                             : Постоянный
Битрейт                                  : 384 Кбит/сек
Каналы                                   : 6 каналов
Расположение каналов                     : Front: L C R, Side: L R, LFE
Частота                                  : 48,0 КГц
Частота кадров                           : 31,250 кадров/сек (1536 SPF)
Битовая глубина                          : 16 бит
Метод сжатия                             : С потерями
Размер потока                            : 342 Мбайт (6%)
Язык                                     : Russian
Default                                  : Да
Forced                                   : Нет

Аудио #2
Идентификатор                            : 3
Формат                                   : E-AC-3
Формат/Информация                        : Enhanced Audio Coding 3
Идентификатор кодека                     : A_EAC3
Продолжительность                        : 2 ч. 4 м.
Вид битрейта                             : Постоянный
Битрейт                                  : 640 Кбит/сек
Каналы                                   : 6 каналов
Расположение каналов                     : Front: L C R, Side: L R, LFE
Частота                                  : 48,0 КГц
Частота кадров                           : 187,500 кадров/сек (256 SPF)
Метод сжатия                             : С потерями
Размер потока                            : 571 Мбайт (11%)
Заголовок                                : Originsl
Язык                                     : English
Default                                  : Нет
Forced                                   : Нет

Текст #1
Идентификатор                            : 4
Формат                                   : UTF-8
Идентификатор кодека                     : S_TEXT/UTF8
Идентификатор кодека/Информация          : UTF-8 Plain Text
Продолжительность                        : 1 ч. 56 м.
Битрейт                                  : 65 бит/сек
ElementCount                             : 1595
Размер потока                            : 56,1 Кбайт (0%)
Заголовок                                : Full
Язык                                     : English
Default                                  : Нет
Forced                                   : Нет

Текст #2
Идентификатор                            : 5
Формат                                   : UTF-8
Идентификатор кодека                     : S_TEXT/UTF8
Идентификатор кодека/Информация          : UTF-8 Plain Text
Продолжительность                        : 1 ч. 57 м.
Битрейт                                  : 68 бит/сек
ElementCount                             : 1680
Размер потока                            : 58,6 Кбайт (0%)
Заголовок                                : SDH
Язык                                     : English
Default                                  : Нет
Forced                                   : Нет




Скриншоты:
[+] Всего файлов в раздаче - 1:
The.Professor.and.the.Madman.2019.1080p.AMZN.WEB-DL.DDP5.1.H.264.Rus.Eng.mkv5.22 GB

Показать еще раздачи по запросу игры:
2019-06-16 U Игры разумов / The Professor and the Madman (2019) BDRip от Twister & ExKinoRay | iTunes 2.13 GB ↑ 89 ↓ 18
2019-06-13 U Игры разумов / The Professor and the Madman (2019) BDRemux 1080p от селезень | D, P | iTunes 27.01 GB ↑ 64 ↓ 20
2019-06-13 U Игры разумов / The Professor and the Madman (2019) BDRip от MegaPeer | iTunes 2.12 GB ↑ 65 ↓ 10
2019-06-13 U Игры разумов / The Professor and the Madman (2019) BDRip 1080p от селезень | D, P | iTunes 9.77 GB ↑ 94 ↓ 32
2019-06-12 U Игры разумов / The Professor and the Madman (2019) BDRip от MegaPeer | iTunes 1.46 GB ↑ 101 ↓ 34
2019-06-11 U Игры разумов / The Professor and the Madman (2019) WEB-DLRip-AVC | iTunes 1.47 GB ↑ 61 ↓ 17
2019-06-11 U Игры разумов / The Professor and the Madman (2019) WEB-DL-HEVC 1080p | iTunes 4.21 GB ↑ 74 ↓ 23

Отзывы
Зарегистрируйтесь чтобы добавить комментарий.
Обратная связь
Copyleft ©