↑↓Torrent.by
Поиск
Логин: Регистрация
Пароль: Восстановить пароль
Загрузка...

Игры разумов / The Professor and the Madman (2019) WEB-DLRip-AVC от ExKinoRay | iTunes

Скачать igry-razumov-the-professor-and-madman-2019-web-dlrip-avc-ot-exkinoray-itunes.torrent
U Магнитная ссылка Размер: 2.19 GB Раздают: 106 Качают: 35 Добавлен: 2019-06-10 13:20:11
Игры разумов / The Professor and the Madman (2019) WEB-DLRip-AVC от ExKinoRay | iTunes

Название: Игры разумов
Оригинальное название: The Professor and the Madman
Год выпуска: 2019
Жанр:  Триллер, драма, детектив, биография
Режиссер: Фарад Сафиниа
В ролях: Мэл Гибсон, Шон Пенн, Натали Дормер, Джереми Ирвин, Дженнифер Или, Стив Кугэн, Стивен Диллэйн, Эдди Марсан, Йоан Гриффит, Лоуренс Фокс

Описание:   Англия середины XIX века. Оксфордский профессор Джеймс Мюррей работает над первым в истории словарем английского языка, а его главным соратником становится заключенный психиатрической клиники для особо опасных преступников - доктор Уильям Майнор. Гений Майнор или сумасшедший, хитроумный преступник, ведущий дерзкую игру, чтобы вырваться на свободу, или одержимый ученый? И кто тогда Мюррей: верный друг, жертва манипуляции или организатор сговора?

Выпущено: Ирландия, Fastnet Films, 22h22, Caviar Antwerp NV
Продолжительность: 02:04:27
Перевод: Дублированный | iTunes

БЕЗ КАКОЙ-ЛИБО РЕКЛАМЫ!

Формат: MKV
Качество: WEB-DLRip-AVC
Видео: MPEG-4 AVC, 1024x426 (2.40:1), 24.000 fps, 1750 Kbps, 0.167 bit/pixel
Аудио 1: 48 kHz, AC3, 5.1, 384 Kbps | iTunes | RUS |
Аудио 2: 48 kHz, AC3, 5.1, 384 Kbps | Оригинал |  ENG |

Релиз:

Автор релиза:


[+] ОтчетМедиаИнфо
General
Unique ID                                : 215161481805231962112309906014250177589 (0xA1DE9814E39CE4AA8089F8D6A5239435)
Complete name                            : F:The.Professor.and.the.Madman.2019.Dub.WEB-DL.Rip.AVC.ExKinoRay.mkv
Format                                   : Matroska
Format version                           : Version 2
File size                                : 2.19 GiB
Duration                                 : 2 h 4 min
Overall bit rate                         : 2 518 kb/s
Movie name                               : The Professor and the Madman 2019 from ExKinoRay
Encoded date                             : UTC 2019-06-10 02:43:49
Writing application                      : mkvmerge v5.6.0 ('Kenya Kane') built on May 27 2012 16:44:04
Writing library                          : libebml v1.2.3 + libmatroska v1.3.0

Video
ID                                       : 1
Format                                   : AVC
Format/Info                              : Advanced Video Codec
Format profile                           : High@L4.1
Format settings, CABAC                   : Yes
Format settings, ReFrames                : 11 frames
Codec ID                                 : V_MPEG4/ISO/AVC
Duration                                 : 2 h 4 min
Bit rate                                 : 1 750 kb/s
Width                                    : 1 024 pixels
Height                                   : 426 pixels
Display aspect ratio                     : 2.40:1
Frame rate mode                          : Constant
Frame rate                               : 24.000 FPS
Color space                              : YUV
Chroma subsampling                       : 4:2:0
Bit depth                                : 8 bits
Scan type                                : Progressive
Bits/(Pixel*Frame)                       : 0.167
Stream size                              : 1.48 GiB (68%)
Title                                    : Enigma
Writing library                          : x264 core 152 r2851 ba24899
Encoding settings                        : cabac=1 / ref=11 / deblock=1:-2:-2 / analyse=0x3:0x113 / me=umh / subme=10 / psy=1 / psy_rd=1.04:0.08 / mixed_ref=1 / me_range=32 / chroma_me=1 / trellis=2 / 8x8dct=1 / cqm=0 / deadzone=21,11 / fast_pskip=0 / chroma_qp_offset=-3 / threads=12 / lookahead_threads=3 / sliced_threads=0 / nr=0 / decimate=0 / interlaced=0 / bluray_compat=0 / constrained_intra=0 / bframes=12 / b_pyramid=2 / b_adapt=2 / b_bias=0 / direct=3 / weightb=1 / open_gop=0 / weightp=2 / keyint=240 / keyint_min=24 / scenecut=40 / intra_refresh=0 / rc=2pass / mbtree=0 / bitrate=1750 / ratetol=1.0 / qcomp=0.60 / qpmin=0 / qpmax=51 / qpstep=4 / cplxblur=20.0 / qblur=0.5 / ip_ratio=1.40 / pb_ratio=1.30 / aq=3:0.90
Language                                 : English
Default                                  : Yes
Forced                                   : No
Color range                              : Limited
Color primaries                          : BT.709
Transfer characteristics                 : BT.709
Matrix coefficients                      : BT.709

Audio #1
ID                                       : 2
Format                                   : AC-3
Format/Info                              : Audio Coding 3
Mode extension                           : CM (complete main)
Format settings, Endianness              : Big
Codec ID                                 : A_AC3
Duration                                 : 2 h 4 min
Bit rate mode                            : Constant
Bit rate                                 : 384 kb/s
Channel(s)                               : 6 channels
Channel positions                        : Front: L C R, Side: L R, LFE
Sampling rate                            : 48.0 kHz
Frame rate                               : 31.250 FPS (1536 spf)
Compression mode                         : Lossy
Stream size                              : 342 MiB (15%)
Title                                    : iTunes
Language                                 : Russian
Default                                  : Yes
Forced                                   : No

Audio #2
ID                                       : 3
Format                                   : AC-3
Format/Info                              : Audio Coding 3
Mode extension                           : CM (complete main)
Format settings, Endianness              : Big
Codec ID                                 : A_AC3
Duration                                 : 2 h 4 min
Bit rate mode                            : Constant
Bit rate                                 : 384 kb/s
Channel(s)                               : 6 channels
Channel positions                        : Front: L C R, Side: L R, LFE
Sampling rate                            : 48.0 kHz
Frame rate                               : 31.250 FPS (1536 spf)
Compression mode                         : Lossy
Stream size                              : 342 MiB (15%)
Language                                 : English
Default                                  : No
Forced                                   : No

Menu
00:00:00.000                             : en:1
00:10:52.000                             : en:2
00:18:58.000                             : en:3
00:27:16.000                             : en:4
00:36:13.000                             : en:5
00:46:23.000                             : en:6
00:57:00.000                             : en:7
01:06:02.000                             : en:8
01:16:08.000                             : en:9
01:26:02.000                             : en:10
01:34:54.000                             : en:11
01:44:13.000                             : en:12
01:53:36.000                             : en:13
01:59:18.000                             : en:14




Скриншоты:
[+] Всего файлов в раздаче - 1:
The.Professor.and.the.Madman.2019.Dub.WEB-DL.Rip.AVC.ExKinoRay.mkv2.19 GB

Показать еще раздачи по запросу игры:
2019-06-16 U Игры разумов / The Professor and the Madman (2019) BDRip от Twister & ExKinoRay | iTunes 2.13 GB ↑ 89 ↓ 18
2019-06-13 U Игры разумов / The Professor and the Madman (2019) BDRemux 1080p от селезень | D, P | iTunes 27.01 GB ↑ 64 ↓ 20
2019-06-13 U Игры разумов / The Professor and the Madman (2019) BDRip от MegaPeer | iTunes 2.12 GB ↑ 65 ↓ 10
2019-06-13 U Игры разумов / The Professor and the Madman (2019) BDRip 1080p от селезень | D, P | iTunes 9.77 GB ↑ 94 ↓ 32
2019-06-12 U Игры разумов / The Professor and the Madman (2019) BDRip от MegaPeer | iTunes 1.46 GB ↑ 101 ↓ 34
2019-06-11 U Игры разумов / The Professor and the Madman (2019) WEB-DLRip-AVC | iTunes 1.47 GB ↑ 61 ↓ 17
2019-06-11 U Игры разумов / The Professor and the Madman (2019) WEB-DL-HEVC 1080p | iTunes 4.21 GB ↑ 74 ↓ 23

Отзывы
Зарегистрируйтесь чтобы добавить комментарий.
Обратная связь
Copyleft ©