↑↓Torrent.by
Поиск
Логин: Регистрация
Пароль: Восстановить пароль
Загрузка...

Короче [01-05] (2019) WEBRip от GeneralFilm

Скачать koroche-01-05-2019-webrip-ot-generalfilm.torrent
U Магнитная ссылка Размер: 1.36 GB Раздают: 72 Качают: 134 Добавлен: 2019-06-10 13:20:14
Короче [01-05] (2019) WEBRip от GeneralFilm

Оригинальное название: Короче
Год выпуска: 2019
Жанр:  Комедия, скетчком
Выпущено: Россия, СУПЕР продакшн, Киностудия "Yellow, Black and White"
Режиссер: Илья Фарфель
В ролях: Борис Дергачев, Константин Шелягин, Дария Гомес, Николай Сороканов, Павел Демьянов, Дмитрий Овчинников, Денис Шаблий, Александра Кузенкина, Александр Якин, Марина Богатова

О фильме: Комедия по-быстрому. Голая правда о тридцатилетних, о которой не говорят вслух. Но не главный герой, этот парень говорит честно, быстро и вообще не думает. Он живёт от зарплаты до зарплаты, ходит в магазин со своим пакетом, хвастается айфоном перед друзьями и, конечно, безнадёжно влюблён.

Качество: WEBRip
Видео: XviD build 73, 720x400 (16:9), 25.000 fps, ~ 1550 Kbps (~ 0.215 bit/pixel)
Аудио: 48.0 kHz, AC3, 2/0 ch, 192 kbps
Продолжительность: 5 х ~ 00:25:00
Перевод: Не требуется [Русский]
Cубтитры: нет

Релиз:


[+] MediaInfo
General
Complete name               : D:RazdachiKoroche.2019.WEBRip.GeneralFilmKoroche.e01.avi
Format                      : AVI
Format/Info                 : Audio Video Interleave
File size                   : 278 MiB
Duration                    : 22 min 9 s
Overall bit rate            : 1 757 kb/s
Writing application         : VirtualDubMod 1.5.10.3 | www.virtualdub-fr.org || (build 2550/release)
Writing library             : VirtualDubMod build 2550/release

Video
ID                          : 0
Format                      : MPEG-4 Visual
Format profile              : Advanced Simple@L5
Format settings             : BVOP1 / Custom Matrix
Format settings, BVOP       : 1
Format settings, QPel       : No
Format settings, GMC        : No warppoints
Format settings, Matrix     : Custom
Codec ID                    : XVID
Codec ID/Hint               : XviD
Duration                    : 22 min 9 s
Bit rate                    : 1 555 kb/s
Width                       : 720 pixels
Height                      : 400 pixels
Display aspect ratio        : 16:9
Frame rate                  : 25.000 FPS
Color space                 : YUV
Chroma subsampling          : 4:2:0
Bit depth                   : 8 bits
Scan type                   : Progressive
Compression mode            : Lossy
Bits/(Pixel*Frame)          : 0.216
Stream size                 : 246 MiB (89%)
Writing library             : XviD 73

Audio
ID                          : 1
Format                      : AC-3
Format/Info                 : Audio Coding 3
Commercial name             : Dolby Digital
Codec ID                    : 2000
Duration                    : 22 min 9 s
Bit rate mode               : Constant
Bit rate                    : 192 kb/s
Channel(s)                  : 2 channels
Channel layout              : L R
Sampling rate               : 48.0 kHz
Frame rate                  : 31.250 FPS (1536 SPF)
Bit depth                   : 16 bits
Compression mode            : Lossy
Stream size                 : 30.4 MiB (11%)
Alignment                   : Split accross interleaves
Interleave, duration        : 40  ms (1.00 video frame)
Interleave, preload duratio : 500  ms
Service kind                : Complete Main



Скриншоты:
[+] Всего файлов в раздаче - 5:
Koroche.e01.avi278.29 MB
Koroche.e02.avi278.66 MB
Koroche.e03.avi278.52 MB
Koroche.e04.avi278.69 MB
Koroche.e05.avi278.23 MB

Показать еще раздачи по запросу короче:
2019-06-13 U Короче [01-07] (2019) WEBRip от Files-x 1.98 GB ↑ 19 ↓ 22
2019-06-13 U Короче [01-08] (2019) WEBRip 720p от ExKinoRay 3.48 GB ↑ 11 ↓ 37
2019-06-12 U Короче [01-07] (2019) WEBRip 720p от ExKinoRay 3.03 GB ↑ 139 ↓ 125
2019-06-11 U Короче [01-06] (2019) WEBRip от GeneralFilm 1К1.63 GB ↑ 59 ↓ 83
2019-06-11 U Короче [01-06] (2019) WEBRip-AVC от Files-x 1.74 GB ↑ 59 ↓ 49
2019-06-11 U Короче [01-06] (2019) WEBRip 720p от ExKinoRay 2.57 GB ↑ 87 ↓ 116
2019-06-10 U Короче [01-05] (2019) WEBRip-AVC от Files-x 1.45 GB ↑ 35 ↓ 30

Отзывы
Зарегистрируйтесь чтобы добавить комментарий.
Обратная связь
Copyleft ©