↑↓Torrent.by
Поиск
Логин: Регистрация
Пароль: Восстановить пароль
Загрузка...

Миа и белый лев / Mia et le lion blanc (2018) BDRip-AVC от OlLanDGroup | iTunes

Скачать mia-i-belyy-lev-et-le-lion-blanc-2018-bdrip-avc-ot-ollandgroup-itunes.torrent
U Магнитная ссылка Размер: 1.81 GB Раздают: 63 Качают: 24 Добавлен: 2019-06-10 13:20:33
Миа и белый лев / Mia et le lion blanc (2018) BDRip-AVC от OlLanDGroup | iTunes

Год выпуска: 2018
Страна: Франция, Германия, ЮАР
Производство: Canal+ [fr]
Жанр:  Драма, приключения, семейный

Режиссёр: Жиль де Мэтр
В ролях: Даниа Де Вилье, Мелани Лоран, Лэнгли Кирквуд, Райан Мак Леннан, Лайонел Ньютон, Лиллиэн Дюбэ, Брэндон Оре, Пол Дэвис, Эшли Харви, Тесса Джуббер

Перевод: Дублированный | [iTunes]
Субтитры: Английские (полные)
Реклама: Отсутствует

Описание: Миа вместе с семьей переезжает в Южную Африку из Лондона, где ее родители покупают ферму по разведению львов. Девочку ничего не радует на новом месте, ей хочется вернуться в Лондон, где остались ее друзья и беззаботная подростковая жизнь. Но внезапно на нее сваливается забота о маленьком белом львенке по имени Чарли, который остался без родителей. И вся ее жизнь круто меняется… Они становятся неразлучны, пока однажды Миа не узнает, что ее другу грозит серьезная опасность. Тогда она решает сбежать и найти для Чарли новый дом, где он будет счастлив и свободен.

Качество: BDRip-AVC | BDRemux | Mia and the White Lion 2018 1080p BluRay REMUX AVC DTS-HD MA 5 1-EPSiLON
Продолжительность: 01:38:15

Формат: MKV
Видео кодек: MPEG-4 AVC
Аудио кодек: AC3
Видео: 1024x428 (2.40:1), 23,976 fps, x264 ~1 812 kbps avg, 0.172 bit/pixel
Аудио #1: 48 kHz, AC3 Dolby Digital Plus, 3/2 (L,C,R,l,r) + LFE ch, ~384.00 kbps avg | RUS (iTunes)
Аудио #2: 48 kHz, AC3 Dolby Digital Plus, 3/2 (L,C,R,l,r) + LFE ch, ~448.00 kbps avg | ENG

Дата премьеры (мир): 21 октября 2018
Дата премьеры (РФ): 11 апреля 2019, «Пионер»
Цифровой релиз: 10 июня 2019, «НД Плэй»

Релиз:


[+] MediaInfo

Общее
Уникальный идентификатор                 : 253110238781419694724318913902603330306 (0xBE6B42415F81D81A3CC5F0A1EE2AE302)
Полное имя                               : F:OlLanDGroupMia.And.The.White.Lion.2019.BDRip(AVC).OllanDGroup.mkv
Формат                                   : Matroska
Версия формата                           : Version 4 / Version 2
Размер файла                             : 1,81 Гбайт
Продолжительность                        : 1 ч. 38 м.
Общий поток                              : 2643 Кбит/сек
Название фильма                          : Mia.And.The.White.Lion.2019   #TorpedoUK#
Дата кодирования                         : UTC 2019-06-10 05:39:16
Программа кодирования                    : mkvmerge v29.0.0 ('Like It Or Not') 64-bit
Библиотека кодирования                   : libebml v1.3.6 + libmatroska v1.4.9

Видео
Идентификатор                            : 1
Формат                                   : AVC
Формат/Информация                        : Advanced Video Codec
Профиль формата                          : High@L4.1
Параметр CABAC формата                   : Да
Параметр ReFrames формата                : 10 кадров
Идентификатор кодека                     : V_MPEG4/ISO/AVC
Продолжительность                        : 1 ч. 38 м.
Битрейт                                  : 1812 Кбит/сек
Ширина                                   : 1024 пикселя
Высота                                   : 428 пикселей
Соотношение сторон                       : 2,40:1
Режим частоты кадров                     : Постоянный
Частота кадров                           : 23,976 (24000/1001) кадра/сек
Цветовое пространство                    : YUV
Субдискретизация насыщенности            : 4:2:0
Битовая глубина                          : 8 бит
Тип развёртки                            : Прогрессивная
Бит/(Пиксели*Кадры)                      : 0.172
Размер потока                            : 1,24 Гбайт (68%)
Библиотека кодирования                   : x264 core 146 r2538 121396c
Настройки программы                      : cabac=1 / ref=10 / deblock=1:-3:-3 / analyse=0x3:0x113 / me=umh / subme=11 / psy=1 / psy_rd=1.00:0.03 / mixed_ref=1 / me_range=48 / chroma_me=1 / trellis=2 / 8x8dct=1 / cqm=0 / deadzone=21,11 / fast_pskip=1 / chroma_qp_offset=-3 / threads=6 / lookahead_threads=1 / sliced_threads=0 / nr=0 / decimate=1 / interlaced=0 / bluray_compat=0 / constrained_intra=0 / bframes=11 / b_pyramid=2 / b_adapt=2 / b_bias=0 / direct=3 / weightb=1 / open_gop=0 / weightp=2 / keyint=240 / keyint_min=23 / scenecut=40 / intra_refresh=0 / rc_lookahead=40 / rc=2pass / mbtree=0 / bitrate=1812 / ratetol=1.0 / qcomp=0.60 / qpmin=0 / qpmax=69 / qpstep=4 / cplxblur=20.0 / qblur=0.5 / vbv_maxrate=50000 / vbv_bufsize=62500 / nal_hrd=none / filler=0 / ip_ratio=1.40 / pb_ratio=1.30 / aq=1:1.00
Язык                                     : English
Default                                  : Да
Forced                                   : Нет

Аудио #1
Идентификатор                            : 2
Формат                                   : AC-3
Формат/Информация                        : Audio Coding 3
Расширение режима                        : CM (complete main)
Параметр Endianness формата              : Big
Идентификатор кодека                     : A_AC3
Продолжительность                        : 1 ч. 38 м.
Вид битрейта                             : Постоянный
Битрейт                                  : 384 Кбит/сек
Каналы                                   : 6 каналов
Расположение каналов                     : Front: L C R, Side: L R, LFE
Частота                                  : 48,0 КГц
Частота кадров                           : 31,250 кадров/сек (1536 spf)
Битовая глубина                          : 16 бит
Метод сжатия                             : С потерями
Размер потока                            : 270 Мбайт (15%)
Заголовок                                : DUB [iTunes]
Язык                                     : Russian
Default                                  : Да
Forced                                   : Нет

Аудио #2
Идентификатор                            : 3
Формат                                   : AC-3
Формат/Информация                        : Audio Coding 3
Расширение режима                        : CM (complete main)
Параметр Endianness формата              : Big
Идентификатор кодека                     : A_AC3
Продолжительность                        : 1 ч. 38 м.
Вид битрейта                             : Постоянный
Битрейт                                  : 448 Кбит/сек
Каналы                                   : 6 каналов
Расположение каналов                     : Front: L C R, Side: L R, LFE
Частота                                  : 48,0 КГц
Частота кадров                           : 31,250 кадров/сек (1536 spf)
Битовая глубина                          : 16 бит
Метод сжатия                             : С потерями
Размер потока                            : 315 Мбайт (17%)
Заголовок                                : [Original]
Язык                                     : English
Default                                  : Нет
Forced                                   : Нет

Текст
Идентификатор                            : 4
Формат                                   : UTF-8
Идентификатор кодека                     : S_TEXT/UTF8
Идентификатор кодека/Информация          : UTF-8 Plain Text
Продолжительность                        : 1 ч. 35 м.
Битрейт                                  : 46 бит/сек
Count of elements                        : 1136
Размер потока                            : 32,3 Кбайт (0%)
Заголовок                                : Full
Язык                                     : English
Default                                  : Нет
Forced                                   : Нет

Меню
00:00:00.000                             : :Глава 01
00:08:18.707                             : :Глава 02
00:17:59.578                             : :Глава 03
00:25:00.833                             : :Глава 04
00:34:04.876                             : :Глава 05
00:41:59.517                             : :Глава 06
00:52:34.026                             : :Глава 07
01:02:35.001                             : :Глава 08
01:11:51.140                             : :Глава 09
01:20:24.111                             : :Глава 10
01:29:41.835                             : :Глава 11
01:35:44.030                             : :Глава 12



Скриншоты:
[+] Всего файлов в раздаче - 1:
Mia.And.The.White.Lion.2019.BDRip(AVC).OllanDGroup.mkv1.81 GB

Показать еще раздачи по запросу белый:
2019-06-11 U Миа и белый лев / Mia et le lion blanc (2018) HDRip от Portablius | iTunes 745.71 MB ↑ 25 ↓ 8
2019-06-10 U Миа и белый лев / Mia et le lion blanc (2018) BDRip от MegaPeer | iTunes 1.42 GB ↑ 29 ↓ 24
2019-05-28 U Миа и белый лев / Mia et le lion blanc (2018) HDRip от MegaPeer | HDRezka Studio 1.46 GB ↑ 240 ↓ 105
2019-04-04 U Белый парень Рик / White Boy Rick (2018) BDRip от MegaPeer | Лицензия 1.46 GB ↑ 591 ↓ 62
2019-04-04 U Белый парень Рик / White Boy Rick (2018) BDRemux 1080p от селезень | D, P | Лицензия 21.79 GB ↑ 50 ↓ 25
2019-04-04 U Белый парень Рик / White Boy Rick (2018) BDRip от MegaPeer | Лицензия 746.24 MB ↑ 77 ↓ 8
2019-04-03 U Белый парень Рик / White Boy Rick (2018) BDRip 1080p от селезень | D, P | Лицензия 13.21 GB ↑ 246 ↓ 166

Отзывы
Зарегистрируйтесь чтобы добавить комментарий.
Обратная связь
Copyleft ©