↑↓Torrent.by
Поиск
Логин: Регистрация
Пароль: Восстановить пароль
Загрузка...

Батальон [01-04 из 04] (2018) WEBRip от Files-x

Скачать batalon-01-04-iz-2018-webrip-ot-files-x.torrent
U Магнитная ссылка Размер: 2.46 GB Раздают: 65 Качают: 61 Добавлен: 2019-06-10 16:31:46
Батальон  [01-04 из 04] (2018) WEBRip от Files-x

Оригинальное название: Батальон
Год выпуска: 2018
Жанр:  Военный, боевик, драма, история
Режиссер: Алексей Быстрицкий
В ролях: Максим Щёголев, Александр Бухаров, Михаил Бабичев, Полина Ястребова, Пьер Бурель, Александр Замураев, Андрей Стоянов, Пётр Королёв (II), Илья Волков, Глеб Гервассиев, Антон Багмет, Виталий Кондрашов, Павел Юдин, Зепюр Брутян

О фильме: Действие фильма развернётся в 1999 году, когда Югославия находилась на пике распада. Война, голод, разруха и мародёрство. Албанское население хочет навсегда избавить свою землю от сербов. Аэропорт города Приштина – важный стратегический объект, и если его займёт Армия освобождения Косово во главе с Брахимом (Михаил Бабичев), то местные албанцы устроят настоящий геноцид сербского народа. Командование России принимает решение захватить аэропорт первыми. Для того, чтобы удержать аэропорт до прихода батальона и не допустить передачу оружия и техники косовским боевикам, на объект отправляют группу спецназовцев ГРУ. Ситуация осложняется тем, что оружия нет, воздушное пространство закрыто, а до ближайшего российского батальона почти 10 часов ходьбы. Единственным, кто может помочь и добыть вооружение, остается разведчик Андрей (Максим Щеглов), ранее внедрённый в армию Косово. Однако выполнить задание Андрею мешают цыгане, похитившие Венеру – дочь Брахима, в которую влюблен русский разведчик. Андрею необходимо принять сложное решение: между долгом перед Родиной и защитой чести любимой девушки необходимо выбрать что-то одно.

Выпущено: Россия
Студия:  Киностудия КИТ по заказу телеканала НТВ
Продолжительность: 4 х ~ 00:48:00
Перевод: Не требуется

Файл
Качество: WEBRip
Видео: XviD, ~ 1600 Кбит/с, 720x304
Аудио: AC3, 2 ch, 192 Кбит/с

Релиз:


[+] MediaInfo

General
Complete name                    : C:06354Батальон.2018.WEB-DLRip. Files-x4. Батальон..2018.WEB-DLRip. Files-x.avi
Format                           : AVI
Format/Info                      : Audio Video Interleave
File size                        : 653 MiB
Duration                         : 50mn 41s
Overall bit rate                 : 1 802 Kbps
Writing application              : VirtualDubMod 1.5.10.3 | www.virtualdub-fr.org || (build 2550/release)
Writing library                  : VirtualDubMod build 2550/release

Video
ID                               : 0
Format                           : MPEG-4 Visual
Format profile                   : Advanced Simple@L5
Format settings, BVOP            : 1
Format settings, QPel            : No
Format settings, GMC             : No warppoints
Format settings, Matrix          : Custom
Codec ID                         : XVID
Codec ID/Hint                    : XviD
Duration                         : 50mn 41s
Bit rate                         : 1 600 Kbps
Width                            : 720 pixels
Height                           : 304 pixels
Display aspect ratio             : 2.35:1
Frame rate                       : 25.000 fps
Color space                      : YUV
Chroma subsampling               : 4:2:0
Bit depth                        : 8 bits
Scan type                        : Progressive
Compression mode                 : Lossy
Bits/(Pixel*Frame)               : 0.292
Stream size                      : 580 MiB (89%)
Writing library                  : XviD 73

Audio
ID                               : 1
Format                           : AC-3
Format/Info                      : Audio Coding 3
Mode extension                   : CM (complete main)
Codec ID                         : 2000
Duration                         : 50mn 41s
Bit rate mode                    : Constant
Bit rate                         : 192 Kbps
Channel(s)                       : 2 channels
Channel positions                : Front: L R
Sampling rate                    : 48.0 KHz
Bit depth                        : 16 bits
Compression mode                 : Lossy
Stream size                      : 69.6 MiB (11%)
Alignment                        : Split accross interleaves
Interleave, duration             : 40 ms (1.00 video frame)
Interleave, preload duration     : 500 ms




Скриншоты:
[+] Всего файлов в раздаче - 4:
01. Батальон..2018.WEB-DLRip. Files-x.avi608.99 MB
02. Батальон..2018.WEB-DLRip. Files-x.avi618.20 MB
03. Батальон..2018.WEB-DLRip. Files-x.avi642.11 MB
04. Батальон..2018.WEB-DLRip. Files-x.avi653.17 MB

Показать еще раздачи по запросу батальон:
2019-06-10 U Батальон [01-04 из 04] (2018) WEBRip-AVC от Files-x 3.00 GB ↑ 75 ↓ 35
2019-06-10 U Батальон [01-04 из 04] (2018) WEBRip от ExKinoRay 2.73 GB ↑ 71 ↓ 22
2019-06-10 U Батальон [01-04 из 04] (2019) WEBRip-AVC от GeneralFilm 2.34 GB ↑ 35 ↓ 31
2019-06-10 U Батальон [01-04 из 04] (2018) WEBRip 720p от ExKinoRay 5.73 GB ↑ 61 ↓ 49
2019-06-10 U Батальон [01-04 из 04] (2018) WEBRip 1080p от ExKinoRay 8.39 GB ↑ 91 ↓ 57
2019-06-10 U Батальон [01-04 из 04] (2018) WEBRip от GeneralFilm 2.18 GB ↑ 131 ↓ 74
2019-06-09 U Батальон [01х01-04 из 04] (2019) SATRip-AVC 2.44 GB ↑ 4 ↓ 20

Отзывы
Зарегистрируйтесь чтобы добавить комментарий.
Обратная связь
Copyleft ©