↑↓Torrent.by
Поиск
Логин: Регистрация
Пароль: Восстановить пароль
Загрузка...

Кошмары на стоянке трейлеров / Trailer Park of Terror (2008) HDRip-AVC от ExKinoRay | P

Скачать koshmary-na-stoyanke-treylerov-trailer-park-of-terror-2008-hdrip-avc-ot-exkinoray-p.torrent
U Магнитная ссылка Размер: 744.43 MB Раздают: 37 Качают: 11 Добавлен: 2019-06-10 16:32:31
Кошмары на стоянке трейлеров / Trailer Park of Terror (2008) HDRip-AVC от ExKinoRay | P

Название: Кошмары на стоянке трейлеров
Оригинальное название: Trailer Park of Terror
Год выхода: 2008
Жанр:  Ужасы, триллер, черная комедия
Режиссер: Стивен Голдманн
В ролях: Николь Хильтц, Лью Темпл, Джинетт Брокс, Мик Вотфорд, Мишель Ли, Эд Корбин, Рики Мейб, Коди МакМейнс, Хейли Норман, Райан Карнес, Стефани Блэк, Мэттью Дель Негро, Триша Рэй Стал, Брок Кучна, Присцилла Барнс, Дуан Уайтакер, Трейси Уолтер, Дейл Дикки, Брэндон Эллисон, Жан-Поль Мано

О фильме:
Сюжет фильма построен на рассказе о нескольких нетипичных старшеклассниках, которые под руководством пастора, направляются автобусом в горы, чтобы насладиться окружающей природой и хоть немного измениться. Ночью началась страшная гроза, в результате чего молния попала в автобус, который сломался и теперь нужно искать место для ночевки. Спустя время они встретили женщину по имени Норма, которая предложила им переночевать в пустом трейлере. У ребят не было других вариантов, поэтому они согласились на это предложение, не подозревая, какой кошмар и ужас ожидает их впереди.

Страна: США
Студия: Lightning Entertainment, Bogner Entertainment, Trailer Park Partners
Продолжительность: 01:33:04
Перевод: Профессиональный (многоголосый, закадровый)

Файл
Формат: MKV
Качество: HDRip-AVC
Видео: MPEG-4 AVC, 768x432, - 997 Кбит/с
Аудио:  AAC-HE, 2 ch, - 76 Кбит/с
Субтитры: Нет


[+] MI
Общее
Уникальный идентификатор : 234452128011856798354238131484545831306 (0xB061D65EF36890A00B242B249138D18A)
Полное имя : D:MOVIESTrailer.Park.of.Terror.2008.ExKinoRay.mkv
Формат : Matroska
Версия формата : Version 4 / Version 2
Размер файла : 744 Мбайт
Продолжительность : 1 ч. 37 м.
Общий поток : 1072 Кбит/сек
Дата кодирования : UTC 2019-06-09 15:20:55
Программа кодирования : mkvmerge v32.0.0 ('Astral Progressions') 64-bit
Библиотека кодирования : libebml v1.3.7 + libmatroska v1.5.0

Видео
Идентификатор : 1
Формат : AVC
Формат/Информация : Advanced Video Codec
Профиль формата : High@L4.1
Параметр CABAC формата : Да
Параметр RefFrames формата : 12 кадров
Идентификатор кодека : V_MPEG4/ISO/AVC
Продолжительность : 1 ч. 37 м.
Битрейт : 997 Кбит/сек
Ширина : 768 пикселей
Высота : 432 пикселя
Соотношение сторон : 16:9
Режим частоты кадров : Постоянный
Частота кадров : 23,976 (24000/1001) кадра/сек
Цветовое пространство : YUV
Субдискретизация насыщенности : 4:2:0
Битовая глубина : 8 бит
Тип развёртки : Прогрессивная
Бит/(Пиксели*Кадры) : 0.125
Размер потока : 690 Мбайт (93%)
Библиотека кодирования : x264 core 152 r2851kMod ba24899
Настройки программы : cabac=1 / ref=12 / deblock=1:-3:-3 / analyse=0x3:0x133 / me=umh / subme=10 / psy=1 / fade_compensate=0.00 / psy_rd=1.00:0.15 / mixed_ref=1 / me_range=32 / chroma_me=1 / trellis=2 / 8x8dct=1 / cqm=0 / deadzone=21,11 / fast_pskip=0 / chroma_qp_offset=-3 / threads=6 / lookahead_threads=1 / sliced_threads=0 / nr=0 / decimate=0 / interlaced=0 / bluray_compat=0 / constrained_intra=0 / bframes=12 / b_pyramid=2 / b_adapt=2 / b_bias=0 / direct=3 / weightb=1 / open_gop=0 / weightp=2 / keyint=240 / keyint_min=23 / scenecut=40 / intra_refresh=0 / rc_lookahead=40 / rc=2pass / mbtree=1 / bitrate=997 / ratetol=1.0 / qcomp=0.60 / qpmin=0 / qpmax=69 / qpstep=4 / cplxblur=20.0 / qblur=0.5 / ip_ratio=1.40 / aq=3:1.00
Default : Да
Forced : Нет

Аудио
Идентификатор : 2
Формат : AAC
Формат/Информация : Advanced Audio Codec
Профиль формата : HE-AAC / LC
Идентификатор кодека : A_AAC
Продолжительность : 1 ч. 37 м.
Битрейт : 76,0 Кбит/сек
Каналы : 2 канала
Расположение каналов : Front: L R
Частота : 48,0 КГц / 24,0 КГц
Частота кадров : 23,438 кадра/сек (1024 SPF)
Метод сжатия : С потерями
Задержка видео : 31 мс.
Размер потока : 52,8 Мбайт (7%)
Язык : Russian
Default : Да
Forced : Нет



Скриншоты:
[+] Всего файлов в раздаче - 1:
Trailer.Park.of.Terror.2008.ExKinoRay.mkv744.43 MB

Похожие раздачи по запросу - кошмары:
2019-03-03 U На Просторах Снов: Кошмары Города / Dreamwalker: Never Fall Asleep (2018) PC 1.35 GB ↑ 64 ↓ 13
2018-06-27 U Кошмары Гагарина - Позвони своей бывшей (2016) MP3 128.82 MB ↑ 121 ↓ 13
2014-04-29 U Кошмары из глубин: Дэйви Джонс / Nightmares from the Deep 3: Davy Jones CE (2014) РС 949.52 MB ↑ 722 ↓ 70
2013-12-03 U Дома с привидениями: Ожившие кошмары. Коллекционное издание (2013) PC 668.81 MB ↑ 415 ↓ 95
2013-09-21 U Кошмары из бездны. Зов Сирены / Nightmares from the Deep: The Siren’s Call CE (2013) РС 825.25 MB ↑ 28 ↓ 25

Отзывы
Зарегистрируйтесь чтобы добавить комментарий.
Обратная связь
Copyleft ©