↑↓Torrent.by
Поиск
Логин: Регистрация
Пароль: Восстановить пароль
Загрузка...

Антиквариат / Antiquities (2018) WEB-DL 1080p от OlLanDGroup | P

Скачать antikvariat-antiquities-2018-web-dl-1080p-ot-ollandgroup-p.torrent
U Магнитная ссылка Размер: 3.35 GB Раздают: 17 Качают: 15 Добавлен: 2019-06-10 16:32:40
Антиквариат / Antiquities (2018) WEB-DL 1080p от OlLanDGroup | P

Год выпуска: 2018
Страна: США
Производство: Mortuus Pater Pictures
Жанр:  Комедия

Режиссёр: Дэниэл Кэмпбелл
В ролях: Мэри Стинберген, Эшли Грин, Эндрю Дж. Уэст, Микейла Уоткинс, Майкл Глэдис, Ингрид Хаас, Натали Кэнердей, Мелани Хэйнс, Трой Хоган

Перевод: Профессиональный многоголосый | [HDRezka Studio]
Субтитры: Нет
Реклама: Отсутствует

Описание: Когда Уолт узнает о смерти отца, он возвращается в родной город, чтобы узнать больше о том, кем был один из его родителей. Мужчина даже устраивается на работу в местный магазин торгующий антиквариатом. В новом сумасшедшем мире он встречает Элли, которая оказывается самой нормальной и практичной женщиной в округе. Уолт очарован новой знакомой, однако тот хаос, что устраивает его коллега по работе и дальние родственники, мешают ему пригласить Элли на свидание, при этом он все также пытается узнать хоть что-то новое о своем отце...

Качество: WEB-DL 1080p | iTunes Version |
Продолжительность: 01:33:03

Формат: MKV
Видео кодек: MPEG-4 AVC
Аудио кодек: AC3
Видео: 1920x816 (2.35:1), 23,976 fps, x264 ~4 573 kbps avg, 0.122 bit/pixel
Аудио #1: 48 kHz, AC3 Dolby Digital, 2 (L,R) ch, ~192.00 kbps avg | RUS (HDRezka Studio)
Аудио #2: 48 kHz, AC3 Dolby Digital, 3/2 (L,C,R,l,r) + LFE ch, ~384.00 kbps avg | ENG

Дата премьеры (мир): 16 июня 2018
Дата премьеры (РФ):
Цифровой релиз:

Релиз:


[+] MediaInfo

Общее
Уникальный идентификатор                 : 278950587332041122866781633824357102123 (0xD1DBEDCD5AE09E31356903832EC4322B)
Полное имя                               : F:OlLanDGroupAntiquities.2018.WEB-DL(1080p).OlLanDGroup.mkv
Формат                                   : Matroska
Версия формата                           : Version 4 / Version 2
Размер файла                             : 3,35 Гбайт
Продолжительность                        : 1 ч. 33 м.
Общий поток                              : 5147 Кбит/сек
Название фильма                          : Antiquities.2018   #TorpedoUK#
Дата кодирования                         : UTC 2019-06-10 10:47:21
Программа кодирования                    : mkvmerge v29.0.0 ('Like It Or Not') 64-bit
Библиотека кодирования                   : libebml v1.3.6 + libmatroska v1.4.9

Видео
Идентификатор                            : 1
Формат                                   : AVC
Формат/Информация                        : Advanced Video Codec
Профиль формата                          : High@L4
Параметр CABAC формата                   : Да
Параметр ReFrames формата                : 5 кадров
Идентификатор кодека                     : V_MPEG4/ISO/AVC
Продолжительность                        : 1 ч. 33 м.
Битрейт                                  : 4573 Кбит/сек
Ширина                                   : 1920 пикселей
Высота                                   : 816 пикселей
Соотношение сторон                       : 2,35:1
Режим частоты кадров                     : Постоянный
Частота кадров                           : 23,976 (24000/1001) кадра/сек
Цветовое пространство                    : YUV
Субдискретизация насыщенности            : 4:2:0
Битовая глубина                          : 8 бит
Тип развёртки                            : Прогрессивная
Бит/(Пиксели*Кадры)                      : 0.122
Размер потока                            : 2,97 Гбайт (89%)
Заголовок                                : Antiquities.2018.1080p.WEB-DL.DD5.1.H264-FGT
Язык                                     : English
Default                                  : Да
Forced                                   : Нет
Цветовой диапазон                        : Limited
Основные цвета                           : BT.709
Характеристики трансфера                 : BT.709
Коэффициенты матрицы                     : BT.709

Аудио #1
Идентификатор                            : 2
Формат                                   : AC-3
Формат/Информация                        : Audio Coding 3
Расширение режима                        : CM (complete main)
Параметр Endianness формата              : Big
Идентификатор кодека                     : A_AC3
Продолжительность                        : 1 ч. 33 м.
Вид битрейта                             : Постоянный
Битрейт                                  : 192 Кбит/сек
Каналы                                   : 2 канала
Расположение каналов                     : Front: L R
Частота                                  : 48,0 КГц
Частота кадров                           : 31,250 кадров/сек (1536 spf)
Битовая глубина                          : 16 бит
Метод сжатия                             : С потерями
Размер потока                            : 128 Мбайт (4%)
Заголовок                                : MVO [HDRezka Studio]
Язык                                     : Russian
Default                                  : Да
Forced                                   : Нет

Аудио #2
Идентификатор                            : 3
Формат                                   : AC-3
Формат/Информация                        : Audio Coding 3
Расширение режима                        : CM (complete main)
Параметр Endianness формата              : Big
Идентификатор кодека                     : A_AC3
Продолжительность                        : 1 ч. 33 м.
Вид битрейта                             : Постоянный
Битрейт                                  : 384 Кбит/сек
Каналы                                   : 6 каналов
Расположение каналов                     : Front: L C R, Side: L R, LFE
Частота                                  : 48,0 КГц
Частота кадров                           : 31,250 кадров/сек (1536 spf)
Битовая глубина                          : 16 бит
Метод сжатия                             : С потерями
Размер потока                            : 256 Мбайт (7%)
Заголовок                                : [Original]
Язык                                     : English
Default                                  : Нет
Forced                                   : Нет

Меню
00:00:00.000                             : en:1
00:15:00.000                             : en:2
00:30:00.000                             : en:3
00:45:00.000                             : en:4
01:00:00.000                             : en:5
01:15:00.000                             : en:6



Скриншоты:
[+] Всего файлов в раздаче - 1:
Antiquities.2018.WEB-DL(1080p).OlLanDGroup.mkv3.35 GB

Похожие раздачи по запросу - антиквариат:
2019-06-10 U Антиквариат / Antiquities (2018) WEB-DLRip от OlLanDGroup | P 1.46 GB ↑ 49 ↓ 16

Отзывы
Зарегистрируйтесь чтобы добавить комментарий.
Обратная связь
Copyleft ©